<?xml version="1.0" standalone="no"?>
<!DOCTYPE svg PUBLIC "-//W3C//DTD SVG 1.1//EN" "http://www.w3.org/Graphics/SVG/1.1/DTD/svg11.dtd" >
<svg xmlns="http://www.w3.org/2000/svg" xmlns:xlink="http://www.w3.org/1999/xlink" version="1.1">
<metadata>
Created by FontForge 20170731 at Thu Jan  7 15:37:02 2021
 By Aleksey,,,
2010 published by Monotype GmbH
</metadata>
<defs>
<font id="DINRoundPro" horiz-adv-x="1089" >
  <font-face 
    font-family="DIN Round Pro"
    font-weight="400"
    font-stretch="normal"
    units-per-em="2048"
    panose-1="2 11 5 4 2 2 1 2 1 4"
    ascent="1565"
    descent="-483"
    x-height="1008"
    cap-height="1458"
    bbox="-324 -561 2284 2243"
    underline-thickness="114"
    underline-position="-403"
    unicode-range="U+000D-FEFF"
  />
<missing-glyph horiz-adv-x="1166" 
d="M281 1458h605q52 0 73 -21q22 -22 22 -74v-1268q0 -51 -22 -73t-73 -22h-605q-52 0 -74 22t-22 73v1268q0 52 22 74q21 21 74 21zM343 1319v-1180h480v1180h-480z" />
    <glyph glyph-name=".notdef" horiz-adv-x="1166" 
d="M281 1458h605q52 0 73 -21q22 -22 22 -74v-1268q0 -51 -22 -73t-73 -22h-605q-52 0 -74 22t-22 73v1268q0 52 22 74q21 21 74 21zM343 1319v-1180h480v1180h-480z" />
    <glyph glyph-name=".null" horiz-adv-x="0" 
 />
    <glyph glyph-name=".null" horiz-adv-x="0" 
 />
    <glyph glyph-name="nonmarkingreturn" horiz-adv-x="682" 
 />
    <glyph glyph-name="CR" unicode="&#xd;" horiz-adv-x="509" 
 />
    <glyph glyph-name="space" unicode=" " horiz-adv-x="509" 
 />
    <glyph glyph-name="exclam" unicode="!" horiz-adv-x="648" 
d="M276 1360q0 50 15 74q20 32 64 32q45 0 65 -32q14 -22 14 -74v-851q0 -52 -14 -74q-21 -33 -65 -33q-43 0 -64 33q-15 24 -15 74v851zM253 96q0 43 29.5 73.5t72.5 30.5t73.5 -30.5t30.5 -73.5t-30.5 -72.5t-73.5 -29.5t-72.5 29.5t-29.5 72.5z" />
    <glyph glyph-name="quotedbl" unicode="&#x22;" horiz-adv-x="808" 
d="M305 1370v-220q0 -48 -13 -69q-19 -31 -62 -31q-42 0 -61 31q-13 21 -13 69v220q0 48 13 69q19 31 61 31q43 0 62 -31q13 -21 13 -69zM653 1370v-220q0 -48 -13 -69q-19 -31 -61 -31q-43 0 -62 31q-13 21 -13 69v220q0 48 13 69q19 31 62 31q42 0 61 -31q13 -21 13 -69z
" />
    <glyph glyph-name="numbersign" unicode="#" horiz-adv-x="1359" 
d="M890 1021l73 365q9 49 29 67q17 16 44 16q33 0 54 -21q15 -15 17.5 -35t-4.5 -54l-68 -338h113q45 0 62 -11q29 -19 29 -56q0 -36 -29 -55q-17 -11 -62 -11h-138l-59 -294h133q46 0 63 -11q29 -19 29 -56q0 -36 -29 -55q-17 -11 -63 -11h-159l-77 -386q-9 -48 -30 -67
q-17 -16 -44 -16q-32 0 -53 21q-15 15 -17.5 35t4.5 54l70 359h-308l-77 -386q-9 -49 -29 -67q-17 -16 -45 -16q-32 0 -53 21q-15 15 -17.5 35t4.5 54l71 359h-112q-45 0 -62 11q-29 19 -29 55q0 37 29 56q17 11 62 11h138l59 294h-134q-45 0 -62 11q-29 19 -29 55
q0 37 29 56q17 11 62 11h160l73 365q9 48 30 67q17 16 44 16q32 0 53 -21q15 -15 17.5 -35t-4.5 -54l-67 -338h309zM555 888l-58 -294h308l58 294h-308z" />
    <glyph glyph-name="dollar" unicode="$" horiz-adv-x="1205" 
d="M677 1518v-52q74 -7 135 -29.5t138 -68.5q61 -36 61 -80q0 -26 -18 -46q-19 -22 -49 -22q-26 0 -72 28q-107 71 -206 83v-534l35 -5q102 -17 162 -39.5t106 -62.5q122 -103 122 -289q0 -169 -111.5 -277.5t-302.5 -130.5v-52q0 -48 -13 -69q-20 -32 -62 -32q-41 0 -61 32
q-14 23 -14 69v48q-107 5 -187 33t-169 89q-66 44 -66 89q0 31 22 53q19 19 48 19q32 0 73 -32q71 -55 138 -81t153 -31v543l-35 6q-89 13 -150 38t-115 73q-113 100 -113 272q0 171 107 280t294 127v51q0 45 14 68q20 32 61 32q42 0 62 -32q13 -21 13 -68zM675 650l-9 1
v-520q128 17 199 85t71 180q0 121 -71 184q-35 30 -72.5 44t-117.5 26zM345 896q39 -34 82 -52t112 -28v517q-123 -12 -192 -83.5t-69 -182.5q0 -114 67 -171z" />
    <glyph glyph-name="percent" unicode="%" horiz-adv-x="1707" 
d="M686 981q0 -126 -77 -201t-199 -75t-200 75t-78 201v213q0 126 78 201t200 75t199 -75t77 -201v-213zM250 1189v-203q0 -178 160 -178q158 0 158 178v203q0 178 -158 178q-160 0 -160 -178zM1575 264q0 -126 -77.5 -201t-199.5 -75t-199.5 75t-77.5 201v213
q0 126 77.5 201.5t199.5 75.5t199.5 -75.5t77.5 -201.5v-213zM1139 472v-203q0 -178 159 -178t159 178v203q0 178 -159 178t-159 -178zM1235 1367l-662 -1325q-15 -32 -32 -43q-11 -7 -26 -7q-13 0 -25 6q-27 13 -29 42q-1 19 14 51l662 1325q15 32 32 43q11 7 26 7
q13 0 25 -6q27 -13 29 -42q1 -19 -14 -51z" />
    <glyph glyph-name="ampersand" unicode="&#x26;" horiz-adv-x="1480" 
d="M962 265l-404 485q-63 -42 -99 -70t-75.5 -70t-57.5 -89t-18 -104q0 -130 86.5 -212t222.5 -82q90 0 173 31.5t172 110.5zM1151 268l112 -133q34 -41 34 -68q0 -35 -26 -57q-23 -18 -50 -18q-34 0 -73 48l-99 120q-185 -172 -432 -172q-209 0 -333.5 115.5t-124.5 305.5
q0 52 11 98.5t34 86t48 71.5t66 66t73 58t83 58q-37 44 -57 70.5t-47.5 70.5t-40.5 88t-13 90q0 130 92 217t230 87q135 0 225.5 -87.5t90.5 -217.5q0 -85 -45 -148.5t-126 -118.5l-99 -68l373 -449q39 58 56 117t24 153q4 49 16 67q18 28 57 28q41 0 59 -29q13 -19 13 -64
q0 -98 -35 -208q-31 -99 -96 -177zM600 928l37 24q89 58 130.5 104t41.5 109q0 75 -48.5 124t-122.5 49q-73 0 -121.5 -48t-48.5 -121q0 -51 27.5 -101t104.5 -140z" />
    <glyph glyph-name="quotesingle" unicode="'" horiz-adv-x="460" 
d="M305 1370v-220q0 -48 -13 -69q-19 -31 -62 -31q-42 0 -61 31q-13 21 -13 69v220q0 48 13 69q19 31 61 31q43 0 62 -31q13 -21 13 -69z" />
    <glyph glyph-name="parenleft" unicode="(" horiz-adv-x="609" 
d="M234 -12q-39 78 -39 206v1072q0 127 39 205q35 69 102 136q41 41 72 41t52 -21q19 -19 19 -47q0 -22 -10 -38t-31 -37q-45 -45 -65 -89q-29 -61 -29 -164v-1045q0 -103 29 -164q20 -44 65 -89q21 -21 31 -37t10 -38q0 -28 -19 -47q-20 -20 -52 -20q-31 0 -72 41
q-68 68 -102 135z" />
    <glyph glyph-name="parenright" unicode=")" horiz-adv-x="609" 
d="M375 -12q-34 -67 -102 -135q-41 -41 -71 -41q-32 0 -52 20t-20 47q0 22 10 38t31 37q47 47 66 89q28 59 28 164v1045q0 105 -28 164q-19 42 -66 89q-21 21 -31 37t-10 38q0 27 20 47q21 21 52 21q30 0 71 -41q67 -67 102 -136q40 -80 40 -205v-1072q0 -126 -40 -206z" />
    <glyph glyph-name="asterisk" unicode="*" horiz-adv-x="974" 
d="M259 1305l173 -105v201q0 37 10 52q15 24 45 24t45 -24q11 -17 11 -52v-201l173 105q30 17 49 17q28 0 45 -29q15 -25 4 -49q-8 -18 -40 -37l-178 -107l178 -107q32 -19 40 -37q11 -24 -4 -49q-16 -28 -45 -28q-19 0 -49 17l-173 103v-199q0 -36 -11 -52q-15 -24 -45 -24
t-45 24q-10 15 -10 52v199l-173 -103q-30 -17 -49 -17q-29 0 -45 28q-15 25 -4 49q8 18 40 37l178 107l-178 107q-32 19 -40 37q-11 24 4 49q17 29 45 29q19 0 49 -17z" />
    <glyph glyph-name="plus" unicode="+" horiz-adv-x="1069" 
d="M468 618v278q0 45 11 62q19 29 56 29q36 0 55 -29q11 -17 11 -62v-278h278q45 0 62 -11q29 -19 29 -55t-29 -55q-19 -12 -62 -12h-278v-277q0 -46 -11 -63q-19 -28 -55 -28q-37 0 -56 28q-11 17 -11 63v277h-278q-43 0 -62 12q-29 19 -29 55t29 55q17 11 62 11h278z" />
    <glyph glyph-name="comma" unicode="," horiz-adv-x="488" 
d="M89 -122l91 274q14 42 34 60q16 15 43 15q25 0 47 -15t27 -38q5 -26 -9 -70l-92 -273q-14 -44 -33 -60q-18 -16 -43 -16t-47 15.5t-27 38.5q-5 25 9 69z" />
    <glyph glyph-name="hyphen" unicode="-" horiz-adv-x="872" 
d="M725 552q0 -36 -29 -55q-19 -12 -62 -12h-395q-44 0 -63 12q-29 19 -29 55t29 55q17 11 63 11h395q45 0 62 -11q29 -19 29 -55z" />
    <glyph glyph-name="period" unicode="." horiz-adv-x="552" 
d="M160 111q0 49 33.5 82.5t82.5 33.5t83 -33.5t34 -82.5t-34 -83t-83 -34t-82.5 34t-33.5 83z" />
    <glyph glyph-name="slash" unicode="/" horiz-adv-x="724" 
d="M695 1501l-530 -1589q-23 -72 -74 -72q-22 0 -41 12.5t-26 31.5q-9 26 6 73l530 1589q23 72 74 72q22 0 41 -12.5t26 -31.5q9 -26 -6 -73z" />
    <glyph glyph-name="zero" unicode="0" horiz-adv-x="1069" 
d="M535 -12q-173 0 -286.5 111t-113.5 290v680q0 179 113.5 290t286.5 111t286 -111t113 -290v-680q0 -179 -113 -290t-286 -111zM535 1337q-118 0 -184 -74t-66 -193v-682q0 -119 66 -193t184 -74t183.5 73.5t65.5 193.5v682q0 119 -65.5 193t-183.5 74z" />
    <glyph glyph-name="one" unicode="1" horiz-adv-x="1069" 
d="M528 1244l-172 -171q-36 -36 -62 -36q-28 0 -50 22q-21 21 -21 48q0 18 8.5 32t31.5 37l250 249q41 41 84 41q34 0 58 -22q23 -22 23 -84v-1268q0 -47 -13 -68q-20 -32 -62 -32q-41 0 -61 32q-14 23 -14 68v1152z" />
    <glyph glyph-name="two" unicode="2" horiz-adv-x="1069" 
d="M129 72q0 32 45 90l523 677q50 65 73.5 124.5t23.5 132.5q0 109 -65.5 175t-183.5 66q-94 0 -162 -47.5t-90 -147.5q-9 -42 -30 -68q-16 -21 -50 -21q-35 0 -53 24q-17 23 -17 53q0 49 28.5 116.5t81.5 118.5q111 105 291 105q183 0 291 -99t108 -274q0 -96 -31 -169.5
t-104 -167.5l-484 -627h536q44 0 63 -12q28 -17 28 -54t-28 -56q-19 -11 -63 -11h-615q-29 0 -42.5 1t-29.5 6t-26 16q-18 18 -18 49z" />
    <glyph glyph-name="three" unicode="3" horiz-adv-x="1070" 
d="M433 748q0 34 29 53q18 11 54 11q125 1 190 71t65 194q0 120 -71.5 190t-183.5 70q-101 0 -161 -44t-82 -140q-10 -44 -31 -64q-19 -17 -46 -17q-48 0 -61 45q-8 27 -5 60q5 50 31.5 102t65.5 89q105 102 289 102q177 0 291.5 -105.5t114.5 -283.5q0 -239 -203 -327
q106 -35 165.5 -124t59.5 -233q0 -122 -59 -216.5t-157 -143.5t-217 -49q-113 0 -186 26t-132 82q-43 42 -69.5 98.5t-26.5 117.5q0 46 22 68q19 21 52 21q29 0 45 -16q23 -21 29 -60q18 -107 84 -155.5t181 -48.5q121 0 203 76.5t82 203.5q0 133 -71.5 207t-207.5 75
q-36 0 -54 11q-29 19 -29 54z" />
    <glyph glyph-name="four" unicode="4" horiz-adv-x="1069" 
d="M648 236h-490q-48 0 -69 15q-28 20 -28 55q0 20 19 60l521 1037q15 31 31.5 47t42.5 16q27 0 48 -18.5t21 -45.5q0 -25 -18 -62l-486 -971h408v323q0 46 14 69q20 32 61 32t61 -32q14 -23 14 -69v-323h110q44 0 63 -12q28 -19 28 -55t-28 -55q-17 -11 -63 -11h-110v-144
q0 -45 -14 -68q-20 -32 -61 -32t-61 32q-14 23 -14 68v144z" />
    <glyph glyph-name="five" unicode="5" horiz-adv-x="1069" 
d="M923 1392q0 -37 -29 -56q-17 -11 -63 -11h-521v-457q97 99 262 99q160 0 253 -91q124 -124 124 -394q0 -128 -24 -221.5t-95 -164.5q-108 -108 -292 -108q-186 0 -292 100q-45 43 -73.5 102t-28.5 116q0 36 20 59q19 22 52 22q31 0 48 -17q20 -18 33 -73
q44 -176 241 -176q117 0 182 65q51 51 65.5 122.5t14.5 173.5q0 58 -5.5 105t-21.5 95.5t-42.5 81t-72.5 53t-107 20.5q-77 0 -132 -24.5t-96 -83.5q-17 -22 -31 -33q-15 -11 -43 -11q-31 0 -51 20q-21 20 -21 64v599q0 49 21 70q20 20 69 20h564q46 0 63 -11q29 -19 29 -55
z" />
    <glyph glyph-name="six" unicode="6" horiz-adv-x="1069" 
d="M700 1402q0 -25 -18 -62l-266 -533q67 27 147 27q170 0 275 -116.5t105 -297.5q0 -189 -110 -310.5t-294 -121.5q-187 0 -297.5 115.5t-110.5 305.5q0 142 91 323l335 671q15 31 31.5 47t42.5 16q27 0 48 -18.5t21 -45.5zM281 414q0 -134 69.5 -213.5t186.5 -79.5
t187.5 79.5t70.5 213.5q0 126 -68.5 209t-189.5 83q-117 0 -186.5 -78.5t-69.5 -213.5z" />
    <glyph glyph-name="seven" unicode="7" horiz-adv-x="1069" 
d="M356 113l454 1212h-506v-136q0 -48 -13 -69q-19 -31 -62 -31q-42 0 -61 31q-13 21 -13 69v179q0 50 20 70t70 20h619q66 0 89 -21q21 -19 21 -52q0 -18 -20 -73l-467 -1249q-17 -46 -34 -59q-17 -12 -37 -12q-26 1 -47 15.5t-25 37.5t12 68z" />
    <glyph glyph-name="eight" unicode="8" horiz-adv-x="1069" 
d="M535 -12q-185 0 -308.5 116t-123.5 298q0 122 60 211t161 144q-193 109 -193 322q0 171 114.5 281t289.5 110t289 -110t114 -281q0 -213 -193 -322q101 -55 161 -144t60 -211q0 -182 -123 -298t-308 -116zM535 1337q-112 0 -183 -73.5t-71 -186.5t71 -186.5t183 -73.5
t182.5 73.5t70.5 186.5t-70.5 186.5t-182.5 73.5zM535 688q-120 0 -201 -81.5t-81 -202.5q0 -122 81 -202.5t201 -80.5t200.5 80.5t80.5 202.5q0 121 -81 202.5t-200 81.5z" />
    <glyph glyph-name="nine" unicode="9" horiz-adv-x="1069" 
d="M369 56q0 25 18 62l266 533q-64 -26 -147 -26q-170 0 -275 116t-105 297q0 189 110 310.5t294 121.5q187 0 297.5 -115t110.5 -305q0 -143 -91 -324l-335 -671q-15 -31 -31.5 -47t-42.5 -16q-27 0 -48 18.5t-21 45.5zM788 1044q0 134 -69.5 213.5t-186.5 79.5
t-187.5 -79.5t-70.5 -213.5q0 -126 68.5 -208.5t189.5 -82.5q117 0 186.5 78t69.5 213z" />
    <glyph glyph-name="colon" unicode=":" horiz-adv-x="608" 
d="M215 111q0 49 34 82.5t83 33.5t83 -33.5t34 -82.5t-34 -83t-83 -34t-83 34t-34 83zM215 706q0 49 34 82.5t83 33.5t83 -33.5t34 -82.5t-34 -83t-83 -34t-83 34t-34 83z" />
    <glyph glyph-name="semicolon" unicode=";" horiz-adv-x="608" 
d="M194 -122l91 274q14 44 33 60q16 15 43 15q25 0 47 -15t27 -38q5 -26 -9 -70l-91 -273q-14 -42 -34 -60q-18 -16 -43 -16t-47 15.5t-27 38.5t10 69zM246 706q0 49 33.5 82.5t82.5 33.5t83 -33.5t34 -82.5t-34 -83t-83 -34t-82.5 34t-33.5 83z" />
    <glyph glyph-name="less" unicode="&#x3c;" horiz-adv-x="1069" 
d="M276 659l476 238q37 18 61 18q27 0 46 -21t19 -48q0 -26 -16.5 -42.5t-47.5 -31.5l-439 -220l439 -220q31 -15 47.5 -31.5t16.5 -42.5q0 -27 -19 -48.5t-46 -21.5q-22 0 -61 19l-476 237q-33 17 -50 28t-31.5 32t-14.5 48q0 38 23 60t73 47z" />
    <glyph glyph-name="equal" unicode="=" horiz-adv-x="1069" 
d="M970 726q0 -36 -29 -55q-19 -12 -62 -12h-689q-43 0 -62 12q-29 19 -29 55t29 55q19 12 62 12h689q43 0 62 -12q29 -19 29 -55zM970 375q0 -37 -29 -56q-17 -11 -62 -11h-689q-45 0 -62 11q-29 19 -29 56q0 36 29 55q17 11 62 11h689q45 0 62 -11q29 -19 29 -55z" />
    <glyph glyph-name="greater" unicode="&#x3e;" horiz-adv-x="1069" 
d="M317 896l476 -238q33 -17 50 -27.5t31.5 -31.5t14.5 -48q0 -39 -23.5 -61t-72.5 -47l-476 -237q-39 -19 -61 -19q-27 0 -46 21.5t-19 48.5q0 26 16.5 42.5t47.5 31.5l439 220l-439 220q-31 15 -47.5 31.5t-16.5 42.5q0 27 19 48t46 21q24 0 61 -18z" />
    <glyph glyph-name="question" unicode="?" horiz-adv-x="1018" 
d="M451 96q0 43 29.5 73.5t72.5 30.5t73 -30.5t30 -73.5t-30 -72.5t-73 -29.5t-72.5 29.5t-29.5 72.5zM674 623q-39 -57 -44 -147q-2 -42 -23 -63t-53 -21q-38 0 -59 29q-16 23 -16 61q0 65 12.5 106.5t51.5 97.5l167 238q66 92 66 176q0 102 -67 170.5t-168 68.5
q-104 0 -169 -64q-56 -54 -70 -147q-5 -36 -19 -54q-18 -23 -57 -23q-34 0 -52 22q-16 20 -16 57q0 57 28.5 121t75.5 113q104 106 278 106q164 0 275 -104.5t111 -265.5q0 -68 -23.5 -124t-69.5 -124z" />
    <glyph glyph-name="at" unicode="@" horiz-adv-x="1461" 
d="M673 488q0 -64 5 -113t20.5 -100t42 -84.5t72 -55t108.5 -21.5q62 0 108 21.5t72 55t41.5 84.5t20.5 100.5t5 112.5q0 64 -5 113t-20.5 100.5t-41.5 85t-72 55t-108 21.5q-63 0 -108.5 -21.5t-72 -55t-42 -85t-20.5 -100.5t-5 -113zM895 989q172 0 273 -126v148
q0 84 -19 138t-63 98q-80 80 -220 80h-271q-140 0 -220 -80q-44 -44 -63 -98t-19 -138v-680q0 -86 15 -123t60 -85q34 -37 34 -65q0 -34 -23 -54q-21 -20 -51 -20q-20 0 -35.5 10.5t-37.5 34.5q-59 61 -84.5 123.5t-25.5 174.5v689q0 213 114 327q117 117 315 117h313
q198 0 315 -117q114 -114 114 -327v-924q0 -47 -13 -68q-20 -32 -62 -32q-41 0 -61 32q-14 23 -14 68v19q-52 -64 -116 -93.5t-155 -29.5q-180 0 -278 122q-51 63 -71 149t-20 229t20 229.5t71 149.5q98 122 278 122z" />
    <glyph glyph-name="A" unicode="A" horiz-adv-x="1251" 
d="M63 121l474 1263q14 38 30 57q23 25 59 25q35 0 58 -25q19 -22 31 -57l473 -1263q8 -24 11.5 -39t0 -33.5t-18.5 -33.5q-23 -23 -58 -23q-22 0 -40 13q-20 16 -37 63l-97 262h-648l-96 -262q-17 -46 -38 -63q-18 -13 -40 -13q-34 0 -57 23q-15 15 -18.5 33.5t0 33.5
t11.5 39zM626 1215l-276 -750h550z" />
    <glyph glyph-name="B" unicode="B" horiz-adv-x="1372" 
d="M306 0q-52 0 -74 22q-21 21 -21 73v1268q0 53 21 74t74 21h456q194 0 313 -104.5t119 -284.5q0 -113 -60.5 -198.5t-156.5 -120.5q109 -40 174.5 -130t65.5 -217q0 -194 -119 -298.5t-318 -104.5h-474zM766 674h-397v-535h397q135 0 214 73t79 196t-79 194.5t-214 71.5z
M750 1319h-381v-506h381q128 0 207 64.5t79 189.5t-79 188.5t-207 63.5z" />
    <glyph glyph-name="C" unicode="C" horiz-adv-x="1306" 
d="M156 729q0 114 2 179.5t10 134t24.5 112.5t43 87t68.5 85q141 143 363 143q247 0 391 -175q43 -52 68 -112.5t25 -99.5q0 -36 -21 -57q-20 -20 -52 -20q-30 0 -48 16q-22 20 -37 65q-39 117 -123 180.5t-204 63.5q-149 0 -250 -104q-67 -68 -85 -165.5t-18 -332.5
t18 -332.5t85 -165.5q101 -104 250 -104q120 0 204 63.5t123 180.5q15 45 37 65q19 17 48 17q31 0 52 -21t21 -57q0 -39 -25 -99.5t-68 -112.5q-144 -175 -391 -175q-222 0 -363 143q-42 42 -68.5 85t-43 87t-24.5 112.5t-10 134t-2 179.5z" />
    <glyph glyph-name="D" unicode="D" horiz-adv-x="1382" 
d="M306 0q-52 0 -74 22q-21 21 -21 73v1268q0 53 21 74t74 21h407q124 0 217.5 -37t167.5 -116q31 -34 54 -73.5t37 -90t22 -91t11.5 -105.5t4 -103.5t0.5 -112.5t-0.5 -112.5t-4 -103t-11.5 -105.5t-22 -91t-37 -89.5t-54 -73.5q-144 -154 -385 -154h-407zM686 1319h-317
v-1180h317q191 0 288 108q33 36 53.5 86t29 120.5t10.5 126t2 149.5t-2 149.5t-10.5 126t-29 120.5t-53.5 86q-97 108 -288 108z" />
    <glyph glyph-name="E" unicode="E" horiz-adv-x="1228" 
d="M306 1458h721q48 0 68 -12q29 -19 29 -57q0 -39 -29 -58q-20 -12 -68 -12h-658v-514h546q48 0 68 -12q30 -20 30 -58q0 -37 -30 -57q-20 -12 -68 -12h-546v-527h658q48 0 68 -12q29 -19 29 -57q0 -39 -29 -58q-20 -12 -68 -12h-721q-52 0 -74 22q-21 21 -21 73v1268
q0 53 21 74t74 21z" />
    <glyph glyph-name="F" unicode="F" horiz-adv-x="1187" 
d="M369 1319v-537h547q48 0 68 -12q30 -20 30 -57q0 -38 -30 -58q-20 -12 -68 -12h-547v-545q0 -49 -15 -73q-21 -33 -64 -33q-44 0 -65 33q-14 22 -14 73v1265q0 53 21 74t74 21h721q48 0 68 -12q29 -19 29 -57q0 -39 -29 -58q-20 -12 -68 -12h-658z" />
    <glyph glyph-name="G" unicode="G" horiz-adv-x="1331" 
d="M313 729q0 -236 18.5 -333.5t84.5 -164.5q102 -104 252 -104q152 0 253 101q60 61 80 143.5t20 244.5h-269q-46 0 -68 13q-30 20 -30 57t30 57q22 13 68 13h326q52 0 74 -22t22 -74v-26q0 -207 -28.5 -311t-116.5 -191q-144 -144 -361 -144q-219 0 -364 143
q-52 52 -81.5 102t-44.5 126.5t-18.5 151.5t-3.5 218q0 114 2 179.5t10 134t24.5 112.5t43 87t68.5 85q141 143 363 143q247 0 391 -175q43 -52 68 -112.5t25 -99.5q0 -36 -21 -57q-20 -20 -52 -20q-30 0 -48 16q-22 20 -37 65q-39 117 -123 180.5t-204 63.5
q-149 0 -250 -104q-67 -68 -85 -165.5t-18 -332.5z" />
    <glyph glyph-name="H" unicode="H" horiz-adv-x="1425" 
d="M1214 98q0 -51 -14 -73q-21 -33 -64 -33q-44 0 -65 33q-14 22 -14 73v568h-688v-568q0 -49 -15 -73q-21 -33 -64 -33q-44 0 -65 33q-14 22 -14 73v1262q0 52 14 74q20 32 65 32q44 0 64 -32q15 -24 15 -74v-555h688v555q0 52 14 74q20 32 65 32q44 0 64 -32
q14 -22 14 -74v-1262z" />
    <glyph glyph-name="I" unicode="I" horiz-adv-x="579" 
d="M369 1360v-1262q0 -49 -15 -73q-21 -33 -64 -33q-44 0 -65 33q-14 22 -14 73v1262q0 52 14 74q20 32 65 32q44 0 64 -32q15 -24 15 -74z" />
    <glyph glyph-name="J" unicode="J" horiz-adv-x="1016" 
d="M371 127q143 0 221 87.5t78 248.5v897q0 52 14 74q20 32 65 32q44 0 64 -32q14 -22 14 -74v-918q0 -208 -126.5 -331t-329.5 -123q-162 0 -278 85q-41 29 -41 67q0 29 19 50q21 22 48 22t70 -30q77 -55 182 -55z" />
    <glyph glyph-name="K" unicode="K" horiz-adv-x="1330" 
d="M369 1360v-726l646 784q39 48 72 48q29 0 51 -18q26 -22 26 -56q0 -27 -35 -69l-346 -421l438 -768q23 -42 23 -71q0 -38 -40 -60q-19 -11 -40 -11q-27 0 -45 16.5t-35 47.5l-410 728l-305 -366v-320q0 -49 -15 -73q-21 -33 -64 -33q-44 0 -65 33q-14 22 -14 73v1262
q0 52 14 74q20 32 65 32q44 0 64 -32q15 -24 15 -74z" />
    <glyph glyph-name="L" unicode="L" horiz-adv-x="1171" 
d="M306 0q-52 0 -74 22q-21 21 -21 73v1265q0 52 14 74q20 32 65 32q44 0 64 -32q15 -24 15 -74v-1221h653q48 0 68 -12q29 -19 29 -57q0 -39 -29 -58q-20 -12 -68 -12h-716z" />
    <glyph glyph-name="M" unicode="M" horiz-adv-x="1671" 
d="M836 217q-33 0 -53.5 18t-38.5 55l-375 809v-1001q0 -49 -15 -73q-21 -33 -64 -33q-44 0 -65 33q-14 22 -14 73v1268q0 52 25 77q22 23 56 23q28 0 47 -12q23 -14 42 -54l455 -981l454 981q19 40 42 54q20 12 47 12q35 0 57 -23q24 -24 24 -77v-1268q0 -51 -14 -73
q-21 -33 -65 -33q-43 0 -64 33q-14 22 -14 73v1001l-376 -809q-18 -37 -38 -55t-53 -18z" />
    <glyph glyph-name="N" unicode="N" horiz-adv-x="1501" 
d="M1290 1360v-1265q0 -55 -24 -79t-60 -24q-27 0 -47 15t-42 47l-748 1106v-1062q0 -49 -15 -73q-21 -33 -64 -33q-44 0 -65 33q-14 22 -14 73v1265q0 54 25 79q22 24 59 24q27 0 46.5 -15t42.5 -47l749 -1106v1062q0 52 14 74q20 32 64 32q45 0 65 -32q14 -22 14 -74z" />
    <glyph glyph-name="O" unicode="O" horiz-adv-x="1335" 
d="M668 1470q219 0 364 -143q42 -42 68.5 -85t43 -87t24.5 -112.5t10 -134t2 -179.5t-2 -179.5t-10 -134t-24.5 -112.5t-43 -87t-68.5 -85q-145 -143 -364 -143q-220 0 -365 143q-42 42 -68.5 85t-42.5 86.5t-24 113t-10 134.5t-2 179t2 179t10 134.5t24 113t42.5 86.5
t68.5 85q145 143 365 143zM668 127q151 0 252 104q66 67 84 164t18 334t-18 334t-84 164q-101 104 -252 104t-252 -104q-66 -67 -84.5 -164.5t-18.5 -333.5t18.5 -333.5t84.5 -164.5q101 -104 252 -104z" />
    <glyph glyph-name="P" unicode="P" horiz-adv-x="1295" 
d="M211 1363q0 53 21 74t74 21h450q200 0 326 -117.5t126 -310.5q0 -194 -126 -312t-326 -118h-387v-502q0 -49 -15 -73q-21 -33 -64 -33q-44 0 -65 33q-14 22 -14 73v1265zM743 1319h-374v-580h374q141 0 224 75t83 216t-83 215t-224 74z" />
    <glyph glyph-name="Q" unicode="Q" horiz-adv-x="1335" 
d="M668 1470q219 0 364 -143q42 -42 68.5 -85t43 -87t24.5 -112.5t10 -134t2 -179.5q0 -242 -18 -352.5t-85 -195.5l106 -105q28 -28 34 -51q8 -32 -19 -59q-26 -26 -58 -18q-23 6 -51 34l-107 105q-134 -99 -314 -99q-220 0 -365 143q-42 42 -68.5 85t-42.5 86.5t-24 113
t-10 134.5t-2 179t2 179t10 134.5t24 113t42.5 86.5t68.5 85q145 143 365 143zM872 197l-136 137q-28 28 -34 51q-8 31 19 58t58 19q23 -6 51 -34l131 -130q38 62 49.5 154t11.5 277q0 237 -18 334t-84 164q-101 104 -252 104t-252 -104q-66 -67 -84.5 -164.5t-18.5 -333.5
t18.5 -333.5t84.5 -164.5q101 -104 250 -104q120 0 206 70z" />
    <glyph glyph-name="R" unicode="R" horiz-adv-x="1345" 
d="M211 1363q0 53 21 74t74 21h466q194 0 314 -109t120 -296q0 -156 -86.5 -258t-231.5 -133l302 -528q23 -42 23 -71q0 -39 -39 -60q-19 -11 -40 -11q-27 0 -45 16.5t-35 47.5l-338 591h-347v-549q0 -49 -15 -73q-21 -33 -64 -33q-44 0 -65 33q-14 22 -14 73v1265z
M758 1319h-389v-535h389q132 0 211.5 68.5t79.5 198.5t-79.5 199t-211.5 69z" />
    <glyph glyph-name="S" unicode="S" horiz-adv-x="1205" 
d="M675 650l-171 27q-89 13 -150 38t-115 73q-113 100 -113 272q0 187 126 298.5t341 111.5q111 0 186.5 -22t170.5 -80q61 -36 61 -80q0 -26 -18 -46q-19 -22 -49 -22q-26 0 -72 28q-73 50 -134 68.5t-151 18.5q-145 0 -227 -73t-82 -195q0 -114 67 -171q40 -34 83 -52
t113 -28l160 -24q102 -17 162 -39.5t106 -62.5q122 -103 122 -289q0 -190 -138 -301.5t-367 -111.5q-133 0 -223.5 27.5t-191.5 95.5q-66 44 -66 89q0 31 22 53q19 19 48 19q32 0 73 -32q82 -62 159 -87.5t184 -25.5q161 0 253 71t92 198q0 121 -71 184q-35 30 -72.5 44
t-117.5 26z" />
    <glyph glyph-name="T" unicode="T" horiz-adv-x="1120" 
d="M150 1458h821q47 0 67 -12q30 -20 30 -57q0 -38 -30 -58q-20 -12 -67 -12h-332v-1221q0 -51 -14 -73q-21 -33 -65 -33q-43 0 -64 33q-15 24 -15 73v1221h-331q-48 0 -68 12q-30 20 -30 58q0 37 30 57q20 12 68 12z" />
    <glyph glyph-name="U" unicode="U" horiz-adv-x="1400" 
d="M1211 481q0 -217 -144.5 -355t-367.5 -138t-366.5 138t-143.5 355v879q0 50 15 74q20 32 64 32q45 0 65 -32q14 -22 14 -74v-866q0 -166 96 -266.5t256 -100.5t257.5 100.5t97.5 266.5v866q0 52 14 74q20 32 65 32q44 0 64 -32q14 -22 14 -74v-879z" />
    <glyph glyph-name="V" unicode="V" horiz-adv-x="1112" 
d="M1064 1343l-422 -1266q-15 -47 -33 -64q-22 -21 -53 -21q-32 0 -53 21q-18 17 -33 64l-422 1266q-14 44 -9 70q5 23 27 38t47 15q27 0 43 -15q19 -16 33 -60l367 -1122l367 1122q14 44 33 60q16 15 43 15q25 0 47 -15t27 -38q5 -26 -9 -70z" />
    <glyph glyph-name="W" unicode="W" horiz-adv-x="1761" 
d="M881 1179l-301 -1097q-12 -46 -36 -68q-23 -22 -59 -22q-35 0 -58 22q-24 22 -36 68l-317 1265q-12 49 -5 71q6 22 26.5 35t43.5 13q31 0 47 -16q19 -19 31 -68l276 -1102l301 1105q11 42 29 59q21 20 58 20q36 0 57 -20q19 -18 30 -59l301 -1105l275 1102q12 49 31 68
q16 16 47 16q23 0 44 -13t27 -35q7 -22 -5 -71l-318 -1265q-12 -46 -36 -68q-23 -22 -58 -22t-58 22q-24 22 -36 68z" />
    <glyph glyph-name="X" unicode="X" horiz-adv-x="1119" 
d="M873 56l-314 557l-313 -557q-17 -31 -35 -47.5t-45 -16.5q-21 0 -40 11q-40 22 -40 60q0 27 24 71l353 614l-330 576q-23 42 -23 71q0 38 40 60q19 11 39 11q27 0 45 -16.5t35 -47.5l290 -523l293 523q17 31 35 47.5t45 16.5q21 0 40 -11q40 -22 40 -60q0 -27 -24 -71
l-334 -575l356 -615q23 -42 23 -71q0 -38 -40 -60q-19 -11 -40 -11q-27 0 -45 16.5t-35 47.5z" />
    <glyph glyph-name="Y" unicode="Y" horiz-adv-x="1032" 
d="M965 1335l-370 -739v-498q0 -51 -14 -73q-21 -33 -65 -33q-43 0 -64 33q-15 24 -15 73v498l-369 739q-22 46 -20 68q3 37 40 55q16 8 35 8q20 0 35 -10q21 -14 41 -55l317 -635l318 635q20 42 40 55q15 10 35 10q19 0 35 -8q37 -18 40 -55q2 -24 -19 -68z" />
    <glyph glyph-name="Z" unicode="Z" horiz-adv-x="1125" 
d="M926 0h-730q-55 0 -77 22q-22 24 -22 54q0 26 27 72l707 1171h-606q-47 0 -67 12q-30 20 -30 58q0 37 30 57q20 12 67 12h700q55 0 76 -21q22 -24 22 -55q0 -24 -28 -72l-705 -1171h636q47 0 67 -12q30 -20 30 -57q0 -38 -30 -58q-20 -12 -67 -12z" />
    <glyph glyph-name="bracketleft" unicode="[" horiz-adv-x="644" 
d="M560 -85q0 -36 -29 -55q-19 -12 -62 -12h-189q-49 0 -70 21t-21 70v1581q0 48 21 69t70 21h189q43 0 62 -12q29 -19 29 -55t-29 -55q-17 -11 -62 -11h-130v-1495h130q43 0 62 -12q29 -19 29 -55z" />
    <glyph glyph-name="backslash" unicode="\" horiz-adv-x="729" 
d="M562 -88l-530 1589q-15 47 -6 73q7 19 26 31.5t41 12.5q51 0 74 -72l530 -1589q15 -47 6 -73q-7 -19 -26 -31.5t-41 -12.5q-51 0 -74 72z" />
    <glyph glyph-name="bracketright" unicode="]" horiz-adv-x="644" 
d="M84 -85q0 36 29 55q19 12 62 12h130v1495h-130q-45 0 -62 11q-29 19 -29 55t29 55q19 12 62 12h190q48 0 69 -21t21 -69v-1581q0 -49 -21 -70t-69 -21h-190q-43 0 -62 12q-29 19 -29 55z" />
    <glyph glyph-name="asciicircum" unicode="^" horiz-adv-x="1069" 
d="M642 1370l238 -475q18 -37 18 -61q0 -27 -21.5 -46t-48.5 -19q-26 0 -42 16t-31 48l-220 439l-221 -439q-15 -32 -31 -48t-42 -16q-27 0 -48.5 19t-21.5 46q0 24 18 61l238 475q17 33 28 50t32 31.5t48 14.5q38 0 60 -23t47 -73z" />
    <glyph glyph-name="underscore" unicode="_" horiz-adv-x="1097" 
d="M972 -346h-846q-39 0 -54 10q-25 15 -25 47t25 47q16 11 54 11h846q38 0 54 -11q25 -15 25 -47t-25 -47q-15 -10 -54 -10z" />
    <glyph glyph-name="grave" unicode="`" 
d="M338 1481q0 39 35 59q18 11 39 11q23 0 39 -13t35 -44l100 -159q25 -41 25 -63q0 -40 -34 -60q-18 -11 -39 -11q-23 0 -39.5 13t-35.5 44l-99 159q-26 43 -26 64z" />
    <glyph glyph-name="a" unicode="a" horiz-adv-x="1078" 
d="M101 286q0 134 93 213t256 79h305v81q0 118 -59 175.5t-189 57.5q-74 0 -124.5 -20.5t-103.5 -68.5q-31 -27 -63 -27q-28 0 -45 19q-18 21 -18 47q0 49 96 112q105 66 259 66q195 0 295 -86t100 -251v-591q0 -47 -13 -68q-20 -32 -62 -32q-41 0 -61 32q-13 21 -13 68v2
q-61 -59 -125.5 -82.5t-163.5 -23.5q-104 0 -172 21.5t-115 70.5q-77 80 -77 206zM248 287q0 -173 232 -173q74 0 126.5 13.5t95.5 54.5q53 51 53 175v108h-289q-108 0 -163 -45.5t-55 -132.5z" />
    <glyph glyph-name="b" unicode="b" horiz-adv-x="1121" 
d="M990 504q0 -303 -125 -428q-88 -88 -245 -88q-91 0 -158 29t-127 104v-29q0 -47 -13 -68q-20 -32 -62 -32q-41 0 -61 32q-14 23 -14 68v1274q0 46 14 69q19 31 61 31q43 0 62 -31q13 -21 13 -69v-475q59 74 126.5 101.5t158.5 27.5q157 0 245 -88q125 -125 125 -428z
M841 504q0 66 -5 116.5t-21 103t-43 86.5t-73.5 55.5t-110.5 21.5t-110.5 -21.5t-73.5 -55.5t-43 -86.5t-21 -103t-5 -116.5t5 -116.5t21 -103t43 -86.5t73.5 -55.5t110.5 -21.5t110.5 21.5t73.5 55.5t43 86.5t21 103t5 116.5z" />
    <glyph glyph-name="c" unicode="c" horiz-adv-x="1001" 
d="M129 504q0 250 122.5 383t322.5 133q140 0 246 -83q41 -33 56.5 -51t15.5 -44t-22 -48q-21 -19 -46 -19q-16 0 -29.5 8t-41.5 31q-50 41 -89.5 57t-89.5 16q-151 0 -230 -112q-35 -50 -50 -112.5t-15 -158.5t15 -158.5t50 -112.5q79 -112 230 -112q51 0 92 16t87 57
q43 38 71 38q26 0 46 -18q22 -22 22 -48q0 -25 -17.5 -46t-54.5 -50q-105 -82 -246 -82q-200 0 -322.5 133t-122.5 383z" />
    <glyph glyph-name="d" unicode="d" horiz-adv-x="1121" 
d="M131 504q0 303 125 428q41 41 105.5 64.5t140.5 23.5q90 0 157.5 -27.5t126.5 -101.5v475q0 46 14 69q19 31 61 31q43 0 62 -31q13 -21 13 -69v-1274q0 -47 -13 -68q-20 -32 -62 -32q-41 0 -61 32q-14 23 -14 68v29q-60 -76 -126.5 -104.5t-157.5 -28.5
q-76 0 -140.5 23.5t-105.5 64.5q-125 125 -125 428zM281 504q0 -66 5 -116.5t21 -103t43 -86.5t73.5 -55.5t110.5 -21.5t110.5 21.5t73.5 55.5t42.5 86.5t20.5 103t5 116.5t-5 116.5t-20.5 103t-42.5 86.5t-73.5 55.5t-110.5 21.5t-110.5 -21.5t-73.5 -55.5t-43 -86.5
t-21 -103t-5 -116.5z" />
    <glyph glyph-name="e" unicode="e" horiz-adv-x="1083" 
d="M872 466h-594q0 -166 77 -257.5t222 -91.5q131 0 216 72q25 21 38.5 28.5t30.5 7.5q24 0 44 -19.5t20 -44.5q0 -49 -105 -115q-97 -58 -251 -58q-207 0 -324 128.5t-117 387.5q0 247 111.5 381.5t304.5 134.5q190 0 300.5 -127t112.5 -340q0 -48 -20 -68q-19 -19 -66 -19
zM278 579h534q-4 96 -32 163q-29 70 -91 110.5t-144 40.5t-145 -41t-91 -110q-27 -64 -31 -163z" />
    <glyph glyph-name="f" unicode="f" horiz-adv-x="648" 
d="M371 1008h148q37 0 54 -11q25 -15 25 -47t-25 -47q-15 -10 -54 -10h-148v-801q0 -45 -14 -68q-20 -32 -61 -32q-42 0 -62 32q-13 21 -13 68v801h-70q-40 0 -55 10q-24 14 -24 47t24 47q16 11 55 11h70v184q0 118 66.5 194t189.5 76h27q46 0 66 -12q28 -18 28 -52t-28 -52
q-21 -13 -66 -13q-133 0 -133 -146v-179z" />
    <glyph glyph-name="g" unicode="g" horiz-adv-x="1119" 
d="M505 -333q139 0 209 85.5t70 222.5v161q-57 -74 -126 -104t-158 -30q-75 0 -140 24.5t-106 65.5q-123 123 -123 420t123 420q40 40 106 64t142 24q91 0 157.5 -28t124.5 -103v26q0 46 14 69q20 32 61 32q42 0 62 -32q13 -21 13 -69v-945q0 -191 -114.5 -311.5
t-311.5 -120.5q-133 0 -224 49q-39 21 -73 51t-34 60t20 49t43 19q26 0 74 -38q76 -61 191 -61zM782 512q0 63 -5 111.5t-20.5 100t-42 85.5t-73 56t-109.5 22t-110 -22t-73.5 -56t-42 -85.5t-20.5 -100.5t-5 -112t5 -111.5t20.5 -100t42 -85.5t73.5 -55.5t110 -21.5
t109.5 22t73 55.5t42 85.5t20.5 100.5t5 111.5z" />
    <glyph glyph-name="h" unicode="h" horiz-adv-x="1156" 
d="M335 92q0 -47 -13 -68q-20 -32 -62 -32q-41 0 -61 32q-14 23 -14 68v1274q0 46 14 69q19 31 61 31q43 0 62 -31q13 -21 13 -69v-469q111 123 282 123t268 -100.5t97 -272.5v-555q0 -47 -13 -68q-20 -32 -62 -32q-41 0 -61 32q-13 21 -13 68v531q0 131 -64 197.5
t-182 66.5t-185 -67t-67 -197v-531z" />
    <glyph glyph-name="i" unicode="i" horiz-adv-x="530" 
d="M340 915v-823q0 -47 -13 -68q-20 -32 -62 -32q-41 0 -61 32q-14 23 -14 68v823q0 46 14 69q20 32 61 32q42 0 62 -32q13 -21 13 -69zM164 1385q0 42 29.5 72t71.5 30t72 -30t30 -72t-30 -71.5t-72 -29.5t-71.5 29.5t-29.5 71.5z" />
    <glyph glyph-name="j" unicode="j" horiz-adv-x="530" 
d="M164 1385q0 42 29.5 72t71.5 30t72 -30t30 -72t-30 -71.5t-72 -29.5t-71.5 29.5t-29.5 71.5zM190 -176v1091q0 46 14 69q20 32 61 32q42 0 62 -32q13 -21 13 -69v-1096q0 -118 -66.5 -194.5t-189.5 -76.5h-27q-45 0 -66 13q-28 18 -28 52t28 52q19 12 66 12
q133 0 133 147z" />
    <glyph glyph-name="k" unicode="k" horiz-adv-x="1052" 
d="M972 62q0 -39 -35 -59q-18 -11 -39 -11q-23 0 -39 13t-36 44l-293 464l-195 -222v-199q0 -47 -13 -68q-20 -32 -62 -32q-41 0 -61 32q-14 23 -14 68v1274q0 46 14 69q19 31 61 31q43 0 62 -31q13 -21 13 -69v-882l431 492q22 25 37 34.5t34 9.5q24 0 43 -16
q24 -21 24 -50q0 -27 -36 -68l-234 -268l312 -492q26 -43 26 -64z" />
    <glyph glyph-name="l" unicode="l" horiz-adv-x="604" 
d="M330 1366v-1091q0 -146 133 -146q47 0 66 -12q28 -18 28 -52q0 -35 -28 -53q-19 -12 -66 -12h-27q-123 0 -189.5 76t-66.5 194v1096q0 46 14 69q19 31 61 31t61 -31q14 -23 14 -69z" />
    <glyph glyph-name="m" unicode="m" horiz-adv-x="1805" 
d="M834 621q0 130 -65.5 198t-181.5 68q-117 0 -184.5 -68.5t-67.5 -197.5v-529q0 -47 -13 -68q-20 -32 -62 -32q-41 0 -61 32q-14 23 -14 68v823q0 46 14 69q20 32 61 32q42 0 62 -32q13 -21 13 -69v-18q108 123 285 123q217 0 309 -168q118 168 332 168q163 0 260 -94
q110 -105 110 -281v-553q0 -47 -13 -68q-20 -32 -62 -32q-41 0 -61 32q-13 21 -13 68v529q0 130 -66 198t-182 68q-113 0 -182 -66.5t-69 -183.5v-545q0 -47 -13 -68q-20 -32 -62 -32q-41 0 -61 32q-13 21 -13 68v529z" />
    <glyph glyph-name="n" unicode="n" horiz-adv-x="1157" 
d="M983 644v-552q0 -46 -13 -68q-20 -32 -62 -32q-43 0 -61 32q-13 22 -13 68v526q0 132 -65 200.5t-182 68.5q-118 0 -185 -69.5t-67 -199.5v-526q0 -46 -13 -68q-20 -32 -62 -32q-41 0 -61 32q-14 24 -14 68v823q0 46 14 69q20 32 61 32q42 0 62 -32q13 -21 13 -69v-18
q111 123 282 123q166 0 262 -94q104 -101 104 -282z" />
    <glyph glyph-name="o" unicode="o" 
d="M545 121q109 0 182 73q48 48 65 126.5t17 183.5t-17 183t-65 126q-74 74 -182 74q-109 0 -183 -74q-48 -48 -64.5 -125.5t-16.5 -183.5t16.5 -184t64.5 -126q73 -73 183 -73zM545 1020q175 0 290 -115q72 -73 97.5 -170t25.5 -231q0 -133 -25.5 -231t-97.5 -171
q-114 -114 -290 -114t-290 114q-72 73 -98 171t-26 231t26 230t98 171q115 115 290 115z" />
    <glyph glyph-name="p" unicode="p" horiz-adv-x="1121" 
d="M990 504q0 -303 -125 -428q-88 -88 -245 -88q-91 0 -158.5 27.5t-126.5 101.5v-475q0 -48 -13 -69q-20 -32 -62 -32q-41 0 -61 32q-14 23 -14 69v1273q0 46 14 69q20 32 61 32q42 0 62 -32q13 -21 13 -69v-28q60 75 127 104t158 29q157 0 245 -88q125 -125 125 -428z
M335 504q0 -66 5 -116.5t21 -103t43 -86.5t73.5 -55.5t110.5 -21.5t110.5 21.5t73.5 55.5t43 86.5t21 103t5 116.5t-5 116.5t-21 103t-43 86.5t-73.5 55.5t-110.5 21.5t-110.5 -21.5t-73.5 -55.5t-43 -86.5t-21 -103t-5 -116.5z" />
    <glyph glyph-name="q" unicode="q" horiz-adv-x="1121" 
d="M131 504q0 303 125 428q41 41 105.5 64.5t140.5 23.5q91 0 157.5 -28.5t126.5 -104.5v28q0 46 14 69q20 32 61 32q42 0 62 -32q13 -21 13 -69v-1273q0 -48 -13 -69q-20 -32 -62 -32q-41 0 -61 32q-14 23 -14 69v475q-59 -74 -126.5 -101.5t-157.5 -27.5
q-76 0 -140.5 23.5t-105.5 64.5q-125 125 -125 428zM281 504q0 -66 5 -116.5t21 -103t43 -86.5t73.5 -55.5t110.5 -21.5t110.5 21.5t73.5 55.5t42.5 86.5t20.5 103t5 116.5t-5 116.5t-20.5 103t-42.5 86.5t-73.5 55.5t-110.5 21.5t-110.5 -21.5t-73.5 -55.5t-43 -86.5
t-21 -103t-5 -116.5z" />
    <glyph glyph-name="r" unicode="r" horiz-adv-x="864" 
d="M335 916v-29q42 61 116.5 97t158.5 36q106 0 182 -48q56 -34 56 -76q0 -30 -22 -52t-51 -22q-21 0 -70 29q-59 36 -126 36q-111 0 -177.5 -76t-66.5 -196v-523q0 -47 -13 -68q-20 -32 -62 -32q-41 0 -61 32q-14 23 -14 68v824q0 46 14 69q20 32 61 32q42 0 62 -32
q13 -21 13 -69z" />
    <glyph glyph-name="s" unicode="s" horiz-adv-x="1015" 
d="M148 84q-49 32 -49 70q0 29 24 51q17 15 43 15t67 -29q105 -75 266 -75q130 0 199 44.5t69 132.5q0 67 -41 102.5t-127 43.5l-166 16q-301 26 -301 270q0 135 103.5 215.5t267.5 80.5q155 0 281 -64q38 -18 51 -36q11 -16 11 -38q0 -19 -17 -40q-20 -22 -47 -22
q-18 0 -56 20q-103 54 -225 54q-107 0 -166.5 -43.5t-59.5 -122.5q0 -68 43 -102.5t135 -42.5l161 -16q143 -13 220 -75.5t77 -197.5q0 -144 -112 -225.5t-298 -81.5q-214 0 -353 96z" />
    <glyph glyph-name="t" unicode="t" horiz-adv-x="688" 
d="M366 893v-618q0 -146 133 -146q47 0 66 -12q28 -18 28 -52q0 -35 -28 -53q-19 -12 -66 -12h-27q-123 0 -189.5 76t-66.5 194v623h-71q-39 0 -54 10q-24 14 -24 47t24 47q16 11 54 11h71v216q0 47 13 68q20 32 62 32q41 0 61 -32q14 -23 14 -68v-216h148q38 0 54 -11
q25 -15 25 -47t-25 -47q-15 -10 -54 -10h-148z" />
    <glyph glyph-name="u" unicode="u" horiz-adv-x="1157" 
d="M174 364v551q0 47 13 69q20 32 62 32q43 0 61 -32q14 -24 14 -69v-526q0 -132 64.5 -200t181.5 -68q118 0 185 69t67 199v526q0 45 14 69q20 32 61 32t61 -32q14 -24 14 -69v-823q0 -45 -14 -68q-20 -32 -61 -32t-61 32q-14 23 -14 68v19q-111 -123 -282 -123
q-165 0 -261 94q-105 102 -105 282z" />
    <glyph glyph-name="v" unicode="v" horiz-adv-x="894" 
d="M827 899l-282 -817q-17 -51 -42 -72q-23 -18 -56 -18t-55 18q-25 21 -42 72l-282 817q-16 48 -7 73q7 19 26.5 31.5t41.5 12.5q51 0 74 -72l244 -733l245 733q23 72 74 72q22 0 41.5 -12.5t26.5 -31.5q9 -25 -7 -73z" />
    <glyph glyph-name="w" unicode="w" horiz-adv-x="1472" 
d="M736 798l-212 -696q-20 -69 -46 -90q-23 -20 -57 -20q-36 0 -59 20q-26 21 -46 90l-237 797q-12 46 -6 69q6 21 25 34.5t43 13.5q26 0 47 -21q16 -16 27 -57l210 -733l211 704q21 69 45 88q23 20 55 20q33 0 56 -20q24 -19 45 -88l211 -704l209 733q11 41 27 57
q21 21 47 21q24 0 43.5 -13.5t25.5 -34.5q6 -23 -6 -69l-238 -797q-20 -69 -46 -90q-23 -20 -58 -20t-58 20q-26 21 -46 90z" />
    <glyph glyph-name="x" unicode="x" horiz-adv-x="901" 
d="M451 394l-211 -345q-19 -30 -35.5 -43.5t-39.5 -13.5q-21 0 -40 12q-35 21 -35 59q0 22 26 63l240 380l-238 376q-26 44 -26 63q0 39 36 60q19 12 39 12q23 0 39 -13.5t36 -44.5l209 -342l208 342q20 31 36 44.5t39 13.5q20 0 39 -12q36 -21 36 -60q0 -19 -26 -63
l-239 -376l241 -380q26 -41 26 -63q0 -38 -35 -59q-20 -12 -40 -12q-23 0 -39 13t-35 44z" />
    <glyph glyph-name="y" unicode="y" horiz-adv-x="893" 
d="M446 200l245 744q23 72 74 72q22 0 41.5 -12.5t26.5 -31.5q9 -25 -7 -73l-395 -1142q-26 -78 -72 -121q-71 -68 -185 -68q-51 0 -70 15q-22 19 -22 51q0 36 23 53q19 14 55 14q58 0 93.5 27.5t58.5 96.5l64 190l-308 884q-16 48 -7 73q7 19 26.5 31.5t41.5 12.5
q51 0 74 -72z" />
    <glyph glyph-name="z" unicode="z" horiz-adv-x="930" 
d="M209 1008h531q46 0 69 -15q28 -19 28 -52q0 -32 -30 -73l-526 -735h468q45 0 62 -11q29 -19 29 -55q0 -37 -29 -56q-17 -11 -62 -11h-562q-48 0 -67 14q-29 19 -29 54q0 30 31 72l525 734h-438q-44 0 -63 12q-28 19 -28 55t28 55q19 12 63 12z" />
    <glyph glyph-name="braceleft" unicode="{" horiz-adv-x="723" 
d="M429 141q0 -57 6.5 -86t23.5 -46q24 -24 89 -24q36 0 59 -13q29 -17 29 -55q0 -39 -31 -55q-20 -10 -64 -10h-21q-119 0 -178 59q-34 34 -47.5 79t-13.5 124v389q0 86 -37 123q-32 32 -74 36q-41 3 -58 20q-18 18 -18 47t18 47t58 21q42 4 74 36q37 37 37 122v391
q0 79 13.5 123.5t47.5 78.5q60 60 178 60h21q42 0 64 -11q31 -15 31 -55q0 -38 -29 -55q-21 -12 -59 -12q-64 0 -89 -25q-17 -17 -23.5 -46t-6.5 -86v-384q0 -83 -32.5 -128.5t-96.5 -76.5q64 -31 96.5 -76.5t32.5 -128.5v-383z" />
    <glyph glyph-name="bar" unicode="|" horiz-adv-x="667" 
d="M409 -59q0 -46 -14 -69q-20 -32 -61 -32q-42 0 -62 32q-13 21 -13 69v1577q0 47 13 68q20 32 62 32q41 0 61 -32q14 -23 14 -68v-1577z" />
    <glyph glyph-name="braceright" unicode="}" horiz-adv-x="723" 
d="M295 141v383q0 83 32.5 128.5t96.5 76.5q-64 31 -96.5 76.5t-32.5 128.5v384q0 57 -6.5 86t-23.5 46q-25 25 -89 25q-38 0 -59 12q-29 17 -29 55q0 40 31 55q22 11 64 11h21q118 0 178 -60q34 -34 47.5 -78.5t13.5 -123.5v-391q0 -85 37 -122q32 -32 74 -36q40 -3 58 -21
t18 -47t-18 -47q-17 -17 -58 -20q-42 -4 -74 -36q-37 -37 -37 -123v-389q0 -79 -13.5 -124t-47.5 -79q-59 -59 -178 -59h-21q-44 0 -64 10q-31 16 -31 55q0 38 29 55q23 13 59 13q65 0 89 24q17 17 23.5 46t6.5 86z" />
    <glyph glyph-name="asciitilde" unicode="~" horiz-adv-x="1103" 
d="M171 451q-26 0 -44 20q-17 18 -17 43q0 35 40 72q55 53 104.5 73t110.5 20q33 0 74 -11t65 -21t77 -33q103 -48 158 -48q40 0 70 13t68 48q27 26 55 26q25 0 45 -20q17 -19 17 -42q0 -35 -41 -73q-54 -53 -103.5 -72.5t-110.5 -19.5q-76 0 -217 64q-38 17 -56.5 25
t-47.5 15.5t-54 7.5q-39 0 -69 -13t-68 -48q-29 -26 -56 -26z" />
    <glyph glyph-name="uni00A0" unicode="&#xa0;" horiz-adv-x="509" 
 />
    <glyph glyph-name="exclamdown" unicode="&#xa1;" horiz-adv-x="644" 
d="M213 -352v851q0 51 14 73q21 33 65 33q43 0 64 -33q15 -24 15 -73v-851q0 -50 -15 -74q-21 -33 -64 -33q-44 0 -65 33q-14 22 -14 74zM189 911q0 43 30 73t73 30t73 -30t30 -73t-30 -73t-73 -30t-73 30t-30 73z" />
    <glyph glyph-name="cent" unicode="&#xa2;" horiz-adv-x="1001" 
d="M129 752q0 223 98.5 353.5t265.5 156.5v106q0 46 11 63q19 28 55 28t55 -28q12 -19 12 -63v-103q104 -10 194 -80q41 -33 56.5 -51t15.5 -44q0 -27 -22 -49q-20 -18 -46 -18q-16 0 -29.5 8t-41.5 31q-67 56 -130 68v-758q64 12 130 69q44 39 71 39q26 0 46 -18
q22 -22 22 -48t-17.5 -47.5t-54.5 -49.5q-86 -68 -194 -79v-155q0 -44 -12 -63q-19 -28 -55 -28t-55 28q-11 17 -11 63v159q-167 26 -265.5 157t-98.5 353zM344 481q56 -80 152 -103v747q-94 -21 -152 -102q-35 -50 -50 -112.5t-15 -158.5t15 -158.5t50 -112.5z" />
    <glyph glyph-name="sterling" unicode="&#xa3;" horiz-adv-x="1126" 
d="M118 777q15 10 54 10h67v229q0 208 126.5 331t328.5 123q167 0 275 -81q48 -37 48 -76q0 -27 -19 -49q-20 -22 -45 -22q-24 0 -64 28q-46 33 -90.5 47.5t-104.5 14.5q-143 0 -220.5 -87.5t-77.5 -249.5v-208h239q39 0 54 -10q25 -15 25 -47t-25 -47q-15 -10 -54 -10h-239
v-534h544q48 0 68 -12q29 -19 29 -57q0 -39 -29 -58q-20 -12 -68 -12h-606q-52 0 -74 22q-21 21 -21 73v578h-67q-39 0 -54 10q-25 15 -25 47t25 47z" />
    <glyph glyph-name="currency" unicode="&#xa4;" horiz-adv-x="1352" 
d="M1130 554q0 -147 -88 -269l103 -101q32 -32 38 -55q8 -33 -20 -61t-61 -20q-23 6 -55 38l-102 100q-120 -88 -269 -88q-151 0 -269 88l-101 -100q-32 -32 -55 -38q-34 -8 -62 20q-27 27 -19 61q6 23 38 55l100 101q-87 122 -87 269q0 146 87 268l-100 101q-32 32 -38 55
q-8 34 19 61q28 28 62 20q23 -6 55 -38l101 -100q118 88 269 88q149 0 269 -88l102 100q32 32 55 38q33 8 61 -20t20 -61q-6 -23 -38 -55l-103 -101q88 -122 88 -268zM355 554q0 -133 93.5 -226.5t225.5 -93.5t225.5 93.5t93.5 226.5q0 132 -93.5 225t-225.5 93t-225.5 -93
t-93.5 -225z" />
    <glyph glyph-name="yen" unicode="&#xa5;" horiz-adv-x="1046" 
d="M850 385h-248v-287q0 -51 -14 -73q-21 -33 -65 -33q-43 0 -64 33q-15 24 -15 73v287h-247q-40 0 -55 10q-24 14 -24 47t24 47q16 11 55 11h247v99l-50 100h-197q-39 0 -55 11q-24 14 -24 47t24 47q15 10 55 10h141l-259 521q-22 46 -20 68q3 37 40 55q16 8 35 8
q20 0 35 -10q21 -14 41 -55l314 -630l315 630q20 41 41 55q15 10 34 10t35 -8q37 -18 40 -55q2 -24 -19 -68l-260 -521h140q39 0 54 -10q25 -15 25 -47t-25 -47q-16 -11 -54 -11h-198l-50 -100v-99h248q38 0 54 -11q25 -15 25 -47t-25 -47q-15 -10 -54 -10z" />
    <glyph glyph-name="brokenbar" unicode="&#xa6;" horiz-adv-x="667" 
d="M409 -59q0 -46 -14 -69q-20 -32 -61 -32q-42 0 -62 32q-13 21 -13 69v532q0 48 13 69q19 31 62 31q42 0 61 -31q14 -23 14 -69v-532zM409 985q0 -46 -14 -69q-19 -31 -61 -31q-43 0 -62 31q-13 21 -13 69v533q0 47 13 68q20 32 62 32q41 0 61 -32q14 -23 14 -68v-533z
" />
    <glyph glyph-name="section" unicode="&#xa7;" horiz-adv-x="1139" 
d="M618 95l-158 46q-135 40 -208.5 137.5t-73.5 237.5q0 118 62 205.5t154 131.5q-93 41 -141.5 108.5t-48.5 174.5q0 149 102.5 241.5t264.5 92.5q237 0 327 -153q41 -67 41 -131q0 -32 -15 -52q-18 -28 -58 -28q-39 0 -58 31q-9 14 -14 44q-13 83 -68.5 120.5t-154.5 37.5
q-104 0 -162.5 -51.5t-58.5 -149.5q0 -146 173 -197l159 -46q133 -39 207 -137.5t74 -237.5q0 -118 -62 -206t-152 -131q91 -33 144.5 -110t53.5 -185q0 -157 -107.5 -253.5t-269.5 -96.5q-225 0 -327 150q-48 71 -48 139q0 31 15 53q18 28 56 28q40 0 60 -31q9 -13 14 -44
q25 -161 230 -161q105 0 166.5 56.5t61.5 157.5q0 72 -47.5 128t-132.5 81zM813 518q0 119 -65 189q-68 73 -178 73q-109 0 -177 -73q-65 -70 -65 -189q0 -118 65 -188q69 -74 177 -74q109 0 178 74q65 70 65 188z" />
    <glyph glyph-name="dieresis" unicode="&#xa8;" 
d="M233 1320q0 38 27.5 65.5t65.5 27.5t65.5 -27.5t27.5 -65.5t-27.5 -65t-65.5 -27t-65.5 27t-27.5 65zM671 1320q0 38 27 65.5t65 27.5t65.5 -27.5t27.5 -65.5t-27.5 -65t-65.5 -27t-65 27t-27 65z" />
    <glyph glyph-name="copyright" unicode="&#xa9;" horiz-adv-x="1804" 
d="M161 729q0 151 58.5 288.5t157.5 236.5t236.5 157.5t288.5 58.5q202 0 372.5 -99t270 -269.5t99.5 -372.5t-99.5 -372.5t-270 -269.5t-372.5 -99q-151 0 -288.5 58.5t-236.5 157.5t-157.5 236.5t-58.5 288.5zM1535 729q0 130 -50.5 248.5t-135 204.5t-202 137t-245.5 51
t-245.5 -51t-202 -137t-135 -204.5t-50.5 -248.5t50.5 -248.5t135 -204.5t202 -137t245.5 -51t245.5 51t202 137t135 204.5t50.5 248.5zM589 729q0 168 85 270t242 102q119 0 193 -68q37 -34 37 -59q0 -20 -12 -32q-14 -14 -34 -14q-19 0 -54 28q-59 51 -130 51
q-117 0 -170 -76.5t-53 -201.5t53 -201t170 -76q72 0 130 50q35 28 54 28q20 0 34 -14q12 -12 12 -32q0 -25 -37 -59q-74 -68 -193 -68q-157 0 -242 102t-85 270z" />
    <glyph glyph-name="ordfeminine" unicode="&#xaa;" horiz-adv-x="919" 
d="M628 937v86h-221q-177 0 -177 -141q0 -69 44 -102.5t139 -33.5q121 0 177 56q38 39 38 135zM429 1464q158 0 237.5 -68.5t79.5 -199.5v-468q0 -41 -11 -57q-16 -26 -49 -26q-25 0 -40 17q-17 17 -17 46v19q-50 -47 -100.5 -65.5t-128.5 -18.5q-83 0 -135.5 17t-89.5 56
q-61 61 -61 164q0 107 73 169.5t205 62.5h236v75q0 88 -48 131t-153 43q-61 0 -102.5 -19t-81.5 -61q-20 -20 -46 -20q-21 0 -34 14q-15 15 -15 39q0 42 80 98q74 52 201 52z" />
    <glyph glyph-name="guillemotleft" unicode="&#xab;" horiz-adv-x="1175" 
d="M525 769l-247 -248l247 -248q32 -32 38 -55q8 -34 -19 -61q-28 -28 -62 -20q-23 6 -55 38l-346 346l346 346q32 32 55 38q35 8 62 -19t19 -62q-6 -23 -38 -55zM988 769l-248 -248l248 -248q32 -32 38 -55q8 -34 -19 -61q-28 -28 -62 -20q-23 6 -55 38l-346 346l346 346
q32 32 55 38q35 8 62 -19t19 -62q-6 -23 -38 -55z" />
    <glyph glyph-name="logicalnot" unicode="&#xac;" horiz-adv-x="1069" 
d="M895 201q-36 0 -55 28q-12 19 -12 63v193h-641q-43 0 -62 12q-29 19 -29 55t29 55q17 11 62 11h684q50 0 70 -20q21 -21 21 -70v-236q0 -44 -12 -63q-19 -28 -55 -28z" />
    <glyph glyph-name="uni00AD" unicode="&#xad;" horiz-adv-x="872" 
d="M725 552q0 -36 -29 -55q-19 -12 -62 -12h-395q-44 0 -63 12q-29 19 -29 55t29 55q17 11 63 11h395q45 0 62 -11q29 -19 29 -55z" />
    <glyph glyph-name="registered" unicode="&#xae;" horiz-adv-x="1804" 
d="M1644 729q0 -202 -99.5 -372.5t-270 -269.5t-372.5 -99q-151 0 -288.5 58.5t-236.5 157.5t-157.5 236.5t-58.5 288.5t58.5 288.5t157.5 236.5t236.5 157.5t288.5 58.5q202 0 372.5 -99t270 -269.5t99.5 -372.5zM1535 729q0 130 -50.5 248.5t-135 204.5t-202 137
t-245.5 51t-245.5 -51t-202 -137t-135 -204.5t-50.5 -248.5t50.5 -248.5t135 -204.5t202 -137t245.5 -51t245.5 51t202 137t135 204.5t50.5 248.5zM923 1000h-133v-247h133q61 0 99 33.5t38 90.5t-38 90t-99 33zM737 359q-27 0 -42 22q-10 15 -10 51v596q0 36 14 51
q16 15 52 15h184q97 0 163 -61.5t66 -155.5q0 -78 -41.5 -128.5t-112.5 -71.5l130 -220q17 -31 17 -48q0 -26 -25 -41q-16 -9 -28 -9q-17 0 -28.5 10t-25.5 35l-152 261h-108v-233q0 -34 -11 -51q-15 -22 -42 -22z" />
    <glyph glyph-name="macron" unicode="&#xaf;" 
d="M767 1257h-444q-39 0 -60 12q-26 17 -26 51t26 51q19 11 60 11h444q40 0 59 -11q27 -17 27 -51t-27 -51q-21 -12 -59 -12z" />
    <glyph glyph-name="degree" unicode="&#xb0;" horiz-adv-x="948" 
d="M137 1140q0 140 98.5 238.5t238.5 98.5t238.5 -98.5t98.5 -238.5t-98.5 -238.5t-238.5 -98.5t-238.5 98.5t-98.5 238.5zM262 1141q0 -90 61 -153.5t151 -63.5t151 63.5t61 153.5t-61 153.5t-151 63.5t-151 -63.5t-61 -153.5z" />
    <glyph glyph-name="plusminus" unicode="&#xb1;" horiz-adv-x="1069" 
d="M468 729v278q0 45 11 62q19 29 56 29q36 0 55 -29q11 -17 11 -62v-278h278q45 0 62 -11q29 -19 29 -55q0 -37 -29 -56q-17 -11 -62 -11h-278v-278q0 -45 -11 -62q-19 -29 -55 -29q-37 0 -56 29q-11 17 -11 62v278h-278q-45 0 -62 11q-29 19 -29 56q0 36 29 55
q17 11 62 11h278zM970 67q0 -37 -29 -56q-17 -11 -62 -11h-689q-45 0 -62 11q-29 19 -29 56q0 36 29 55q17 11 62 11h689q45 0 62 -11q29 -19 29 -55z" />
    <glyph glyph-name="twosuperior" unicode="&#xb2;" horiz-adv-x="651" 
d="M523 584h-365q-50 0 -67 17q-14 16 -14 38q0 4 0.5 7t1.5 6.5t1.5 6t3 7t3.5 6.5t4.5 6.5t5 6.5t5.5 8t6 8l310 402q47 60 47 121q0 63 -35.5 99.5t-98.5 36.5q-47 0 -83.5 -26t-46.5 -74q-5 -27 -21 -48q-12 -16 -40 -16q-29 0 -45 22q-9 13 -9 36q0 45 38 108
q66 104 207 104q115 0 183.5 -65t68.5 -177q0 -50 -16.5 -89.5t-58.5 -93.5l-274 -351h289q36 0 51 -10q22 -14 22 -43t-22 -43q-15 -10 -51 -10z" />
    <glyph glyph-name="threesuperior" unicode="&#xb3;" horiz-adv-x="651" 
d="M578 1222q0 -135 -111 -187q125 -53 125 -206q0 -121 -75 -188t-190 -67t-186 59.5t-71 144.5q0 31 15 49t42 18q37 0 47 -39q15 -59 54.5 -92t98.5 -33q64 0 105 40.5t41 108.5t-38.5 108t-111.5 40q-26 0 -41 14.5t-15 36.5t14.5 37t41.5 15q66 0 101 37.5t35 100.5
q0 65 -39 102.5t-94 37.5q-96 0 -124 -76q-2 -4 -9 -26t-11 -30.5t-16 -18.5t-29 -10q-26 0 -41 18.5t-15 47.5q0 44 31 96q66 105 214 105q113 0 182.5 -66.5t69.5 -176.5z" />
    <glyph glyph-name="acute" unicode="&#xb4;" 
d="M507 1334l104 167q19 30 34 42q16 12 37 12q20 0 37 -11q36 -21 34 -58q-1 -21 -25 -59l-104 -166q-19 -30 -34 -42q-18 -13 -37 -13t-37 12q-36 21 -34 58q1 20 25 58z" />
    <glyph glyph-name="mu" unicode="&#xb5;" horiz-adv-x="1166" 
d="M335 354q8 -116 73 -175.5t174 -59.5q116 0 182.5 69t66.5 199v528q0 46 14 69q20 32 61 32q42 0 62 -32q13 -21 13 -69v-823q0 -47 -13 -68q-20 -32 -62 -32q-41 0 -61 32q-14 23 -14 68v19q-108 -123 -282 -123q-131 0 -214 73v-418q0 -48 -13 -69q-20 -32 -62 -32
q-41 0 -61 32q-14 23 -14 69v1272q0 46 14 69q20 32 61 32q42 0 62 -32q13 -21 13 -69v-561z" />
    <glyph glyph-name="paragraph" unicode="&#xb6;" horiz-adv-x="1235" 
d="M489 668q-119 0 -212.5 56.5t-142 145.5t-48.5 191q0 170 119.5 283.5t324.5 113.5h406q50 0 70 -20t20 -70v-1726q0 -48 -13 -69q-20 -32 -62 -32q-41 0 -61 32q-13 21 -13 69v1677h-238v-1677q0 -48 -13 -69q-20 -32 -62 -32q-41 0 -61 32q-14 23 -14 69v1026z" />
    <glyph glyph-name="periodcentered" unicode="&#xb7;" horiz-adv-x="628" 
d="M198 552q0 49 33.5 83t82.5 34t83 -34t34 -83t-34 -83t-83 -34t-82.5 34t-33.5 83z" />
    <glyph glyph-name="cedilla" unicode="&#xb8;" 
d="M357 -346l105 167q19 30 34 42q16 12 36 12t37 -11q36 -21 34 -59q-1 -22 -24 -58l-105 -167q-19 -30 -34 -42q-16 -12 -37 -12q-19 0 -36 11q-36 21 -34 59q1 22 24 58z" />
    <glyph glyph-name="onesuperior" unicode="&#xb9;" horiz-adv-x="651" 
d="M133 1198q-21 21 -15 48q4 20 29 45l139 139q36 36 74 36q33 0 50 -18q16 -18 16 -59v-732q0 -39 -10 -55q-17 -27 -49 -27q-33 0 -50 27q-10 16 -10 55v636l-81 -81q-25 -25 -45 -29q-27 -6 -48 15z" />
    <glyph glyph-name="ordmasculine" unicode="&#xba;" horiz-adv-x="932" 
d="M139 1055q0 106 21.5 184.5t78.5 135.5q89 89 228 89q138 0 227 -89q57 -57 78.5 -135.5t21.5 -184.5t-21.5 -185t-78.5 -136q-89 -89 -227 -89q-139 0 -228 89q-57 57 -78.5 136t-21.5 185zM676 1055q0 83 -12.5 144t-51.5 100q-60 60 -145 60q-86 0 -146 -60
q-39 -39 -51 -99.5t-12 -144.5t12 -145t51 -100q59 -59 146 -59q86 0 145 59q39 39 51.5 100.5t12.5 144.5z" />
    <glyph glyph-name="guillemotright" unicode="&#xbb;" horiz-adv-x="1175" 
d="M435 521l-248 248q-31 31 -37 55q-8 35 19 62t61 19q24 -6 56 -38l346 -346l-346 -346q-32 -32 -56 -38q-33 -8 -61 20q-27 27 -19 61q6 24 37 55zM898 521l-248 248q-32 32 -38 55q-8 34 20 62q27 27 61 19q24 -6 56 -38l346 -346l-346 -346q-32 -32 -56 -38
q-33 -8 -61 20t-20 61q6 23 38 55z" />
    <glyph glyph-name="onequarter" unicode="&#xbc;" horiz-adv-x="1665" 
d="M1212 1367l-661 -1325q-15 -31 -33 -43q-11 -7 -25 -7q-13 0 -25 6q-28 14 -30 42q-1 17 15 51l661 1325q15 31 33 43q11 7 25 7q13 0 25 -6q28 -14 30 -42q1 -17 -15 -51zM133 1198q-21 21 -15 48q4 20 29 45l139 139q36 36 74 36q33 0 50 -18q16 -18 16 -59v-732
q0 -39 -10 -55q-17 -27 -49 -27q-33 0 -50 27q-10 16 -10 55v636l-81 -81q-25 -25 -45 -29q-27 -6 -48 15zM1062 230l301 601q25 52 60 52q21 0 38.5 -15t17.5 -37q0 -17 -16 -50l-271 -541h223v159q0 29 9 41q15 23 43 23t43 -23q10 -13 10 -41v-159h38q34 0 51 -11
q21 -14 21 -43q0 -30 -21 -43q-15 -10 -51 -10h-38v-78q0 -28 -10 -41q-15 -22 -43 -22t-43 22q-9 12 -9 41v78h-296q-32 0 -47 8q-24 15 -24 44q0 17 14 45z" />
    <glyph glyph-name="onehalf" unicode="&#xbd;" horiz-adv-x="1665" 
d="M1212 1367l-661 -1325q-15 -31 -33 -43q-11 -7 -25 -7q-13 0 -25 6q-28 14 -30 42q-1 17 15 51l661 1325q15 31 33 43q11 7 25 7q13 0 25 -6q28 -14 30 -42q1 -17 -15 -51zM133 1198q-21 21 -15 48q4 20 29 45l139 139q36 36 74 36q33 0 50 -18q16 -18 16 -59v-732
q0 -39 -10 -55q-17 -27 -49 -27q-33 0 -50 27q-10 16 -10 55v636l-81 -81q-25 -25 -45 -29q-27 -6 -48 15zM1537 0h-366q-49 0 -66 17q-14 16 -14 38t30 63l311 401q47 60 47 121q0 63 -35.5 99.5t-98.5 36.5q-47 0 -84 -26t-47 -74q-5 -28 -20 -47q-13 -17 -40 -17
q-29 0 -45 22q-9 13 -9 37q0 44 38 107q67 105 207 105q115 0 183 -65.5t68 -177.5q0 -50 -16.5 -89t-57.5 -93l-274 -352h289q36 0 51 -10q22 -14 22 -43t-22 -43q-15 -10 -51 -10z" />
    <glyph glyph-name="threequarters" unicode="&#xbe;" horiz-adv-x="1665" 
d="M1212 1367l-661 -1325q-15 -31 -33 -43q-11 -7 -25 -7q-13 0 -25 6q-28 14 -30 42q-1 17 15 51l661 1325q15 31 33 43q11 7 25 7q13 0 25 -6q28 -14 30 -42q1 -17 -15 -51zM578 1223q0 -135 -111 -187q125 -53 125 -206q0 -121 -75 -188t-190 -67t-186 59.5t-71 144.5
q0 31 15 49t42 18q37 0 47 -39q15 -59 54.5 -92t98.5 -33q64 0 105 40.5t41 108.5t-38.5 108t-111.5 40q-26 0 -41 14.5t-15 36.5t14.5 37t41.5 15q66 0 101 37.5t35 100.5q0 65 -39 102.5t-94 37.5q-96 0 -124 -76q-2 -4 -9 -26t-11 -30.5t-16 -18.5t-29 -10
q-26 0 -41 18.5t-15 47.5q0 44 31 96q66 105 214 105q113 0 182.5 -66.5t69.5 -176.5zM1062 230l301 601q25 52 60 52q21 0 38.5 -15t17.5 -37q0 -17 -16 -50l-271 -541h223v159q0 29 9 41q15 23 43 23t43 -23q10 -13 10 -41v-159h38q34 0 51 -11q21 -14 21 -43
q0 -30 -21 -43q-15 -10 -51 -10h-38v-78q0 -28 -10 -41q-15 -22 -43 -22t-43 22q-9 12 -9 41v78h-296q-32 0 -47 8q-24 15 -24 44q0 17 14 45z" />
    <glyph glyph-name="questiondown" unicode="&#xbf;" horiz-adv-x="1018" 
d="M568 910q0 -43 -29.5 -73t-72.5 -30t-73.5 30t-30.5 73t30.5 73t73.5 30t72.5 -30t29.5 -73zM345 384q39 57 44 146q2 43 23 64q20 20 53 20q39 0 59 -28q16 -23 16 -62q0 -65 -12.5 -106t-51.5 -97l-167 -238q-66 -92 -66 -176q0 -102 67 -171t168 -69q103 0 169 65
q57 54 70 146q5 36 19 54q19 24 57 24q34 0 52 -23q16 -20 16 -57q0 -57 -28.5 -120.5t-75.5 -112.5q-105 -107 -278 -107q-164 0 -275 105t-111 266q0 68 23.5 124t69.5 124z" />
    <glyph glyph-name="Agrave" unicode="&#xc0;" horiz-adv-x="1251" 
d="M63 121l474 1263q14 38 30 57q23 25 59 25q35 0 58 -25q19 -22 31 -57l473 -1263q8 -24 11.5 -39t0 -33.5t-18.5 -33.5q-23 -23 -58 -23q-22 0 -40 13q-20 16 -37 63l-97 262h-648l-96 -262q-17 -46 -38 -63q-18 -13 -40 -13q-34 0 -57 23q-15 15 -18.5 33.5t0 33.5
t11.5 39zM626 1215l-276 -750h550zM414 1861q0 39 35 59q18 11 38 11q23 0 39.5 -13t35.5 -44l100 -159q25 -41 25 -63q0 -40 -35 -60q-18 -11 -39 -11q-23 0 -39 13t-35 44l-100 159q-25 41 -25 64z" />
    <glyph glyph-name="Aacute" unicode="&#xc1;" horiz-adv-x="1251" 
d="M63 121l474 1263q14 38 30 57q23 25 59 25q35 0 58 -25q19 -22 31 -57l473 -1263q8 -24 11.5 -39t0 -33.5t-18.5 -33.5q-23 -23 -58 -23q-22 0 -40 13q-20 16 -37 63l-97 262h-648l-96 -262q-17 -46 -38 -63q-18 -13 -40 -13q-34 0 -57 23q-15 15 -18.5 33.5t0 33.5
t11.5 39zM626 1215l-276 -750h550zM586 1710l104 167q19 30 34 42q16 12 37 12t37 -11q35 -20 33 -58q-1 -23 -24 -59l-105 -167q-19 -32 -33 -42q-17 -12 -37 -12t-37 11q-36 21 -34 59q1 20 25 58z" />
    <glyph glyph-name="Acircumflex" unicode="&#xc2;" horiz-adv-x="1251" 
d="M63 121l474 1263q14 38 30 57q23 25 59 25q35 0 58 -25q19 -22 31 -57l473 -1263q8 -24 11.5 -39t0 -33.5t-18.5 -33.5q-23 -23 -58 -23q-22 0 -40 13q-20 16 -37 63l-97 262h-648l-96 -262q-17 -46 -38 -63q-18 -13 -40 -13q-34 0 -57 23q-15 15 -18.5 33.5t0 33.5
t11.5 39zM626 1215l-276 -750h550zM626 1776l-159 -159q-28 -28 -50 -34q-31 -6 -55 18q-25 25 -17 55q6 23 33 50l191 190q28 28 57 28q28 0 56 -28l191 -190q27 -27 33 -50q8 -30 -17 -55q-24 -24 -54 -18q-23 6 -51 34z" />
    <glyph glyph-name="Atilde" unicode="&#xc3;" horiz-adv-x="1251" 
d="M63 121l474 1263q14 38 30 57q23 25 59 25q35 0 58 -25q19 -22 31 -57l473 -1263q8 -24 11.5 -39t0 -33.5t-18.5 -33.5q-23 -23 -58 -23q-22 0 -40 13q-20 16 -37 63l-97 262h-648l-96 -262q-17 -46 -38 -63q-18 -13 -40 -13q-34 0 -57 23q-15 15 -18.5 33.5t0 33.5
t11.5 39zM626 1215l-276 -750h550zM608 1659q-70 42 -113 42q-25 0 -44 -7t-47 -30q-32 -27 -52 -27q-22 0 -38 16q-15 15 -15 40q0 30 37 62q75 64 157 64q42 0 72.5 -10.5t73.5 -36.5q70 -42 114 -42q17 0 28 1.5t27 10t35 24.5q32 27 52 27q23 0 38 -15t15 -40
q0 -31 -37 -63q-45 -39 -81 -51t-75 -12q-42 0 -73 10.5t-74 36.5z" />
    <glyph glyph-name="Adieresis" unicode="&#xc4;" horiz-adv-x="1251" 
d="M63 121l474 1263q14 38 30 57q23 25 59 25q35 0 58 -25q19 -22 31 -57l473 -1263q8 -24 11.5 -39t0 -33.5t-18.5 -33.5q-23 -23 -58 -23q-22 0 -40 13q-20 16 -37 63l-97 262h-648l-96 -262q-17 -46 -38 -63q-18 -13 -40 -13q-34 0 -57 23q-15 15 -18.5 33.5t0 33.5
t11.5 39zM626 1215l-276 -750h550zM314 1704q0 38 27.5 65.5t65.5 27.5t65.5 -27.5t27.5 -65.5t-27.5 -65t-65.5 -27t-65.5 27t-27.5 65zM752 1704q0 38 27 65.5t65 27.5t65.5 -27.5t27.5 -65.5t-27.5 -65t-65.5 -27t-65 27t-27 65z" />
    <glyph glyph-name="Aring" unicode="&#xc5;" horiz-adv-x="1251" 
d="M63 121l474 1263q14 38 30 57q23 25 59 25q35 0 58 -25q19 -22 31 -57l473 -1263q8 -24 11.5 -39t0 -33.5t-18.5 -33.5q-23 -23 -58 -23q-22 0 -40 13q-20 16 -37 63l-97 262h-648l-96 -262q-17 -46 -38 -63q-18 -13 -40 -13q-34 0 -57 23q-15 15 -18.5 33.5t0 33.5
t11.5 39zM626 1215l-276 -750h550zM383 1774q0 100 71 171t172 71q100 0 171 -71t71 -171q0 -101 -71 -172t-171 -71t-171.5 71.5t-71.5 171.5zM484 1774q0 -58 42 -100t100 -42t99.5 41.5t41.5 100.5q0 58 -41.5 99.5t-99.5 41.5q-59 0 -100.5 -41.5t-41.5 -99.5z" />
    <glyph glyph-name="AE" unicode="&#xc6;" horiz-adv-x="1847" 
d="M829 345h-485l-143 -288q-20 -41 -41 -55q-15 -10 -35 -10q-19 0 -35 8q-37 18 -40 55q-2 22 20 68l621 1244q21 43 52 68q30 23 77 23h826q47 0 67 -12q30 -20 30 -57q0 -38 -30 -58q-20 -12 -67 -12h-659v-514h547q48 0 68 -12q29 -19 29 -58q0 -38 -29 -57
q-20 -12 -68 -12h-547v-527h659q47 0 67 -12q30 -20 30 -57q0 -38 -30 -58q-20 -12 -67 -12h-721q-52 0 -74 22t-22 73v250zM829 480v837l-417 -837h417z" />
    <glyph glyph-name="Ccedilla" unicode="&#xc7;" horiz-adv-x="1306" 
d="M156 729q0 114 2 179.5t10 134t24.5 112.5t43 87t68.5 85q141 143 363 143q247 0 391 -175q43 -52 68 -112.5t25 -99.5q0 -36 -21 -57q-20 -20 -52 -20q-30 0 -48 16q-22 20 -37 65q-39 117 -123 180.5t-204 63.5q-149 0 -250 -104q-67 -68 -85 -165.5t-18 -332.5
t18 -332.5t85 -165.5q101 -104 250 -104q120 0 204 63.5t123 180.5q15 45 37 65q19 17 48 17q31 0 52 -21t21 -57q0 -39 -25 -99.5t-68 -112.5q-144 -175 -391 -175q-222 0 -363 143q-42 42 -68.5 85t-43 87t-24.5 112.5t-10 134t-2 179.5zM502 -346l104 167q19 30 34 42
q16 12 37 12t37 -11q36 -21 34 -59q-1 -20 -25 -58l-105 -167q-19 -32 -33 -42q-17 -12 -37 -12t-37 11q-36 21 -34 59q1 20 25 58z" />
    <glyph glyph-name="Egrave" unicode="&#xc8;" horiz-adv-x="1228" 
d="M306 1458h721q48 0 68 -12q29 -19 29 -57q0 -39 -29 -58q-20 -12 -68 -12h-658v-514h546q48 0 68 -12q30 -20 30 -58q0 -37 -30 -57q-20 -12 -68 -12h-546v-527h658q48 0 68 -12q29 -19 29 -57q0 -39 -29 -58q-20 -12 -68 -12h-721q-52 0 -74 22q-21 21 -21 73v1268
q0 53 21 74t74 21zM430 1861q0 39 35 59q18 11 39 11q23 0 39.5 -13t35.5 -44l99 -159q25 -41 25 -63q0 -40 -34 -60q-18 -11 -39 -11q-23 0 -39.5 13t-35.5 44l-99 159q-26 43 -26 64z" />
    <glyph glyph-name="Eacute" unicode="&#xc9;" horiz-adv-x="1228" 
d="M306 1458h721q48 0 68 -12q29 -19 29 -57q0 -39 -29 -58q-20 -12 -68 -12h-658v-514h546q48 0 68 -12q30 -20 30 -58q0 -37 -30 -57q-20 -12 -68 -12h-546v-527h658q48 0 68 -12q29 -19 29 -57q0 -39 -29 -58q-20 -12 -68 -12h-721q-52 0 -74 22q-21 21 -21 73v1268
q0 53 21 74t74 21zM602 1710l105 167q19 32 33 42q17 12 37 12q21 0 37 -11q36 -21 34 -58q-1 -21 -25 -59l-104 -167q-19 -30 -34 -42q-16 -12 -37 -12q-20 0 -37 11q-35 20 -33 59q1 22 24 58z" />
    <glyph glyph-name="Ecircumflex" unicode="&#xca;" horiz-adv-x="1228" 
d="M306 1458h721q48 0 68 -12q29 -19 29 -57q0 -39 -29 -58q-20 -12 -68 -12h-658v-514h546q48 0 68 -12q30 -20 30 -58q0 -37 -30 -57q-20 -12 -68 -12h-546v-527h658q48 0 68 -12q29 -19 29 -57q0 -39 -29 -58q-20 -12 -68 -12h-721q-52 0 -74 22q-21 21 -21 73v1268
q0 53 21 74t74 21zM642 1776l-159 -159q-28 -28 -50 -34q-30 -6 -54 18q-25 25 -18 55q6 23 33 50l192 190q28 28 56 28t56 -28l192 -190q27 -27 33 -50q7 -30 -18 -55q-24 -24 -54 -18q-22 6 -50 34z" />
    <glyph glyph-name="Edieresis" unicode="&#xcb;" horiz-adv-x="1228" 
d="M306 1458h721q48 0 68 -12q29 -19 29 -57q0 -39 -29 -58q-20 -12 -68 -12h-658v-514h546q48 0 68 -12q30 -20 30 -58q0 -37 -30 -57q-20 -12 -68 -12h-546v-527h658q48 0 68 -12q29 -19 29 -57q0 -39 -29 -58q-20 -12 -68 -12h-721q-52 0 -74 22q-21 21 -21 73v1268
q0 53 21 74t74 21zM331 1704q0 38 27 65.5t65 27.5t65.5 -27.5t27.5 -65.5t-27.5 -65t-65.5 -27t-65 27t-27 65zM768 1704q0 38 27 65.5t65 27.5t65.5 -27.5t27.5 -65.5t-27.5 -65t-65.5 -27t-65 27t-27 65z" />
    <glyph glyph-name="Igrave" unicode="&#xcc;" horiz-adv-x="579" 
d="M369 1360v-1262q0 -49 -15 -73q-21 -33 -64 -33q-44 0 -65 33q-14 22 -14 73v1262q0 52 14 74q20 32 65 32q44 0 64 -32q15 -24 15 -74zM78 1861q0 39 35 59q18 11 39 11q23 0 39 -13t35 -44l100 -159q25 -41 25 -63q0 -40 -35 -60q-18 -11 -38 -11q-23 0 -39.5 13
t-35.5 44l-100 159q-25 41 -25 64z" />
    <glyph glyph-name="Iacute" unicode="&#xcd;" horiz-adv-x="579" 
d="M369 1360v-1262q0 -49 -15 -73q-21 -33 -64 -33q-44 0 -65 33q-14 22 -14 73v1262q0 52 14 74q20 32 65 32q44 0 64 -32q15 -24 15 -74zM250 1710l104 167q19 30 34 42q17 12 37 12q21 0 37 -11q36 -21 34 -58q-1 -21 -25 -59l-104 -167q-19 -30 -34 -42q-16 -12 -37 -12
q-20 0 -37 11q-36 21 -34 59q1 20 25 58z" />
    <glyph glyph-name="Icircumflex" unicode="&#xce;" horiz-adv-x="579" 
d="M369 1360v-1262q0 -49 -15 -73q-21 -33 -64 -33q-44 0 -65 33q-14 22 -14 73v1262q0 52 14 74q20 32 65 32q44 0 64 -32q15 -24 15 -74zM290 1776l-159 -159q-28 -28 -50 -34q-30 -6 -54 18q-25 25 -18 55q6 23 33 50l191 190q28 28 57 28q28 0 56 -28l192 -190
q25 -25 32 -50q8 -30 -17 -55q-24 -24 -54 -18q-22 6 -50 34z" />
    <glyph glyph-name="Idieresis" unicode="&#xcf;" horiz-adv-x="579" 
d="M5 1704q0 38 27 65.5t65 27.5t65.5 -27.5t27.5 -65.5t-27.5 -65t-65.5 -27t-65 27t-27 65zM389 1704q0 38 27 65.5t65 27.5t65.5 -27.5t27.5 -65.5t-27.5 -65t-65.5 -27t-65 27t-27 65zM369 1360v-1262q0 -49 -15 -73q-21 -33 -64 -33q-44 0 -65 33q-14 22 -14 73v1262
q0 52 14 74q20 32 65 32q44 0 64 -32q15 -24 15 -74z" />
    <glyph glyph-name="Eth" unicode="&#xd0;" horiz-adv-x="1411" 
d="M335 0q-52 0 -74 22q-21 21 -21 73v577h-88q-45 0 -62 11q-27 17 -27 52t27 52q19 12 62 12h88v564q0 53 21 74t74 21h406q124 0 217.5 -37t167.5 -116q31 -34 54 -73.5t37 -90t22 -91t11.5 -105.5t4 -103.5t0.5 -112.5t-0.5 -112.5t-4 -103t-11.5 -105.5t-22 -91
t-37 -89.5t-54 -73.5q-144 -154 -385 -154h-406zM715 1319h-318v-520h256q43 0 62 -12q26 -17 26 -52t-26 -52q-17 -11 -62 -11h-256v-533h318q190 0 287 108q33 36 53.5 86t29 120t11 126.5t2.5 149.5t-2.5 149.5t-11 126.5t-29 120t-53.5 86q-97 108 -287 108z" />
    <glyph glyph-name="Ntilde" unicode="&#xd1;" horiz-adv-x="1501" 
d="M1290 1360v-1265q0 -55 -24 -79t-60 -24q-27 0 -47 15t-42 47l-748 1106v-1062q0 -49 -15 -73q-21 -33 -64 -33q-44 0 -65 33q-14 22 -14 73v1265q0 54 25 79q22 24 59 24q27 0 46.5 -15t42.5 -47l749 -1106v1062q0 52 14 74q20 32 64 32q45 0 65 -32q14 -22 14 -74z
M732 1659q-70 42 -114 42q-25 0 -43.5 -6.5t-46.5 -30.5q-32 -27 -52 -27q-22 0 -38 16q-15 15 -15 40q0 30 37 62q75 64 156 64q42 0 73 -10.5t74 -36.5q70 -42 114 -42q17 0 28 1.5t27 10t35 24.5q32 27 52 27q23 0 38 -15t15 -40q0 -31 -37 -63q-45 -39 -81 -51t-75 -12
q-42 0 -73 10.5t-74 36.5z" />
    <glyph glyph-name="Ograve" unicode="&#xd2;" horiz-adv-x="1335" 
d="M668 1470q219 0 364 -143q42 -42 68.5 -85t43 -87t24.5 -112.5t10 -134t2 -179.5t-2 -179.5t-10 -134t-24.5 -112.5t-43 -87t-68.5 -85q-145 -143 -364 -143q-220 0 -365 143q-42 42 -68.5 85t-42.5 86.5t-24 113t-10 134.5t-2 179t2 179t10 134.5t24 113t42.5 86.5
t68.5 85q145 143 365 143zM668 127q151 0 252 104q66 67 84 164t18 334t-18 334t-84 164q-101 104 -252 104t-252 -104q-66 -67 -84.5 -164.5t-18.5 -333.5t18.5 -333.5t84.5 -164.5q101 -104 252 -104zM456 1861q0 39 34 59q18 11 39 11q23 0 39.5 -13t35.5 -44l99 -159
q26 -43 26 -63q0 -40 -35 -60q-18 -11 -39 -11q-23 0 -39 13t-35 44l-100 159q-25 41 -25 64z" />
    <glyph glyph-name="Oacute" unicode="&#xd3;" horiz-adv-x="1335" 
d="M668 1470q219 0 364 -143q42 -42 68.5 -85t43 -87t24.5 -112.5t10 -134t2 -179.5t-2 -179.5t-10 -134t-24.5 -112.5t-43 -87t-68.5 -85q-145 -143 -364 -143q-220 0 -365 143q-42 42 -68.5 85t-42.5 86.5t-24 113t-10 134.5t-2 179t2 179t10 134.5t24 113t42.5 86.5
t68.5 85q145 143 365 143zM668 127q151 0 252 104q66 67 84 164t18 334t-18 334t-84 164q-101 104 -252 104t-252 -104q-66 -67 -84.5 -164.5t-18.5 -333.5t18.5 -333.5t84.5 -164.5q101 -104 252 -104zM628 1710l104 167q19 30 34 42q16 12 37 12t37 -11q35 -20 33 -58
q-1 -23 -24 -59l-105 -167q-19 -32 -33 -42q-17 -12 -37 -12t-37 11q-36 21 -34 59q1 20 25 58z" />
    <glyph glyph-name="Ocircumflex" unicode="&#xd4;" horiz-adv-x="1335" 
d="M668 1470q219 0 364 -143q42 -42 68.5 -85t43 -87t24.5 -112.5t10 -134t2 -179.5t-2 -179.5t-10 -134t-24.5 -112.5t-43 -87t-68.5 -85q-145 -143 -364 -143q-220 0 -365 143q-42 42 -68.5 85t-42.5 86.5t-24 113t-10 134.5t-2 179t2 179t10 134.5t24 113t42.5 86.5
t68.5 85q145 143 365 143zM668 127q151 0 252 104q66 67 84 164t18 334t-18 334t-84 164q-101 104 -252 104t-252 -104q-66 -67 -84.5 -164.5t-18.5 -333.5t18.5 -333.5t84.5 -164.5q101 -104 252 -104zM668 1776l-159 -159q-28 -28 -50 -34q-31 -6 -55 18q-25 25 -17 55
q6 23 33 50l191 190q28 28 57 28q28 0 56 -28l191 -190q27 -27 33 -50q8 -30 -17 -55q-24 -24 -54 -18q-23 6 -51 34z" />
    <glyph glyph-name="Otilde" unicode="&#xd5;" horiz-adv-x="1335" 
d="M668 1470q219 0 364 -143q42 -42 68.5 -85t43 -87t24.5 -112.5t10 -134t2 -179.5t-2 -179.5t-10 -134t-24.5 -112.5t-43 -87t-68.5 -85q-145 -143 -364 -143q-220 0 -365 143q-42 42 -68.5 85t-42.5 86.5t-24 113t-10 134.5t-2 179t2 179t10 134.5t24 113t42.5 86.5
t68.5 85q145 143 365 143zM668 127q151 0 252 104q66 67 84 164t18 334t-18 334t-84 164q-101 104 -252 104t-252 -104q-66 -67 -84.5 -164.5t-18.5 -333.5t18.5 -333.5t84.5 -164.5q101 -104 252 -104zM650 1659q-70 42 -113 42q-25 0 -44 -7t-47 -30q-32 -27 -52 -27
q-22 0 -38 16q-15 15 -15 40q0 30 37 62q75 64 157 64q42 0 72.5 -10.5t73.5 -36.5q70 -42 114 -42q17 0 28 1.5t27 10t35 24.5q32 27 52 27q23 0 38 -15t15 -40q0 -31 -37 -63q-45 -39 -81 -51t-75 -12q-42 0 -73 10.5t-74 36.5z" />
    <glyph glyph-name="Odieresis" unicode="&#xd6;" horiz-adv-x="1335" 
d="M668 1470q219 0 364 -143q42 -42 68.5 -85t43 -87t24.5 -112.5t10 -134t2 -179.5t-2 -179.5t-10 -134t-24.5 -112.5t-43 -87t-68.5 -85q-145 -143 -364 -143q-220 0 -365 143q-42 42 -68.5 85t-42.5 86.5t-24 113t-10 134.5t-2 179t2 179t10 134.5t24 113t42.5 86.5
t68.5 85q145 143 365 143zM668 127q151 0 252 104q66 67 84 164t18 334t-18 334t-84 164q-101 104 -252 104t-252 -104q-66 -67 -84.5 -164.5t-18.5 -333.5t18.5 -333.5t84.5 -164.5q101 -104 252 -104zM356 1704q0 38 27.5 65.5t65.5 27.5t65.5 -27.5t27.5 -65.5t-27.5 -65
t-65.5 -27t-65.5 27t-27.5 65zM794 1704q0 38 27 65.5t65 27.5t65.5 -27.5t27.5 -65.5t-27.5 -65t-65.5 -27t-65 27t-27 65z" />
    <glyph glyph-name="multiply" unicode="&#xd7;" horiz-adv-x="1069" 
d="M436 552l-232 231q-32 32 -38 56q-8 34 19 61q28 28 62 20q23 -6 55 -38l233 -232l232 232q32 32 55 38q34 8 62 -20q27 -27 19 -61q-6 -24 -38 -56l-232 -231l232 -231q32 -32 38 -56q8 -34 -19 -61q-28 -28 -62 -20q-23 6 -55 38l-232 232l-233 -232q-32 -32 -55 -38
q-34 -8 -62 20q-27 27 -19 61q6 24 38 56z" />
    <glyph glyph-name="Oslash" unicode="&#xd8;" horiz-adv-x="1335" 
d="M255 22l53 106q-43 42 -70.5 86t-44 88.5t-24.5 113.5t-10.5 134.5t-2.5 178.5q0 114 2 179t10 134.5t24 113t42.5 86.5t68.5 85q145 143 365 143q141 0 252 -63l44 89q19 38 34 50q29 22 65 4t36 -54q0 -19 -19 -58l-54 -108q43 -43 70.5 -86.5t45 -88.5t25.5 -113
t10.5 -134.5t2.5 -178.5q0 -114 -2 -179.5t-10 -134t-24.5 -112.5t-43 -87t-68.5 -85q-145 -143 -364 -143q-144 0 -253 62l-43 -87q-18 -37 -35 -50q-29 -22 -65 -4q-35 17 -35 54q0 22 18 59zM390 279l475 995q-85 58 -197 58q-151 0 -253 -104q-66 -67 -84 -164.5
t-18 -334.5q0 -204 13.5 -295t63.5 -155zM668 126q151 0 252 104q66 67 84 164.5t18 334.5q0 204 -13.5 295.5t-63.5 155.5l-475 -996q85 -58 198 -58z" />
    <glyph glyph-name="Ugrave" unicode="&#xd9;" horiz-adv-x="1400" 
d="M1211 481q0 -217 -144.5 -355t-367.5 -138t-366.5 138t-143.5 355v879q0 50 15 74q20 32 64 32q45 0 65 -32q14 -22 14 -74v-866q0 -166 96 -266.5t256 -100.5t257.5 100.5t97.5 266.5v866q0 52 14 74q20 32 65 32q44 0 64 -32q14 -22 14 -74v-879zM487 1861q0 39 35 59
q18 11 39 11q23 0 39.5 -13t35.5 -44l99 -159q26 -43 26 -63q0 -40 -35 -60q-18 -11 -39 -11q-23 0 -39.5 13t-35.5 44l-99 159q-26 43 -26 64z" />
    <glyph glyph-name="Uacute" unicode="&#xda;" horiz-adv-x="1400" 
d="M1211 481q0 -217 -144.5 -355t-367.5 -138t-366.5 138t-143.5 355v879q0 50 15 74q20 32 64 32q45 0 65 -32q14 -22 14 -74v-866q0 -166 96 -266.5t256 -100.5t257.5 100.5t97.5 266.5v866q0 52 14 74q20 32 65 32q44 0 64 -32q14 -22 14 -74v-879zM659 1710l105 167
q19 30 34 42q17 12 37 12q19 0 36 -11q36 -21 34 -58q-1 -23 -24 -59l-105 -167q-19 -30 -34 -42q-17 -12 -36 -12q-20 0 -37 11q-36 21 -34 59q1 22 24 58z" />
    <glyph glyph-name="Ucircumflex" unicode="&#xdb;" horiz-adv-x="1400" 
d="M1211 481q0 -217 -144.5 -355t-367.5 -138t-366.5 138t-143.5 355v879q0 50 15 74q20 32 64 32q45 0 65 -32q14 -22 14 -74v-866q0 -166 96 -266.5t256 -100.5t257.5 100.5t97.5 266.5v866q0 52 14 74q20 32 65 32q44 0 64 -32q14 -22 14 -74v-879zM699 1776l-158 -159
q-28 -28 -51 -34q-30 -6 -54 18q-25 25 -17 55q6 23 33 50l191 190q28 28 56 28q29 0 57 -28l191 -190q27 -27 33 -50q8 -30 -17 -55q-24 -24 -55 -18q-22 6 -50 34z" />
    <glyph glyph-name="Udieresis" unicode="&#xdc;" horiz-adv-x="1400" 
d="M1211 481q0 -217 -144.5 -355t-367.5 -138t-366.5 138t-143.5 355v879q0 50 15 74q20 32 64 32q45 0 65 -32q14 -22 14 -74v-866q0 -166 96 -266.5t256 -100.5t257.5 100.5t97.5 266.5v866q0 52 14 74q20 32 65 32q44 0 64 -32q14 -22 14 -74v-879zM388 1704
q0 38 27 65.5t65 27.5t65.5 -27.5t27.5 -65.5t-27.5 -65t-65.5 -27t-65 27t-27 65zM825 1704q0 38 27.5 65.5t65.5 27.5t65.5 -27.5t27.5 -65.5t-27.5 -65t-65.5 -27t-65.5 27t-27.5 65z" />
    <glyph glyph-name="Yacute" unicode="&#xdd;" horiz-adv-x="1032" 
d="M965 1335l-370 -739v-498q0 -51 -14 -73q-21 -33 -65 -33q-43 0 -64 33q-15 24 -15 73v498l-369 739q-22 46 -20 68q3 37 40 55q16 8 35 8q20 0 35 -10q21 -14 41 -55l317 -635l318 635q20 42 40 55q15 10 35 10q19 0 35 -8q37 -18 40 -55q2 -24 -19 -68zM476 1710
l105 167q19 32 33 42q16 12 37 12t37 -11q36 -21 34 -58q-1 -21 -25 -59l-104 -167q-19 -30 -34 -42q-17 -12 -37 -12t-37 11q-35 20 -33 59q1 22 24 58z" />
    <glyph glyph-name="Thorn" unicode="&#xde;" horiz-adv-x="1319" 
d="M369 1165h387q200 0 326 -117.5t126 -310.5q0 -194 -126 -312t-326 -118h-387v-209q0 -49 -15 -73q-21 -33 -64 -33q-44 0 -65 33q-14 22 -14 73v1262q0 52 14 74q20 32 65 32q44 0 64 -32q15 -24 15 -74v-195zM743 1026h-374v-580h374q141 0 224 75t83 216t-83 215
t-224 74z" />
    <glyph glyph-name="germandbls" unicode="&#xdf;" horiz-adv-x="1138" 
d="M668 131h17q74 0 118 42q43 40 43 126v354q0 83 -42 124q-42 42 -117 42h-29q-38 0 -55 11q-25 17 -25 51q0 33 25 50q17 11 55 11h13q78 0 126.5 50t48.5 134q0 94 -64 155q-63 60 -194 60q-253 0 -253 -277v-972q0 -46 -13 -68q-20 -32 -62 -32q-43 0 -61 32
q-14 24 -14 68v979q0 190 111 294.5t302 104.5q112 0 199 -34.5t141.5 -112.5t54.5 -191q0 -160 -128 -245q73 -39 101.5 -93t28.5 -153v-357q0 -133 -82 -210q-81 -74 -202 -74h-43q-44 0 -63 12q-27 19 -27 54q0 34 27 53q19 12 63 12z" />
    <glyph glyph-name="agrave" unicode="&#xe0;" horiz-adv-x="1078" 
d="M101 286q0 134 93 213t256 79h305v81q0 118 -59 175.5t-189 57.5q-74 0 -124.5 -20.5t-103.5 -68.5q-31 -27 -63 -27q-28 0 -45 19q-18 21 -18 47q0 49 96 112q105 66 259 66q195 0 295 -86t100 -251v-591q0 -47 -13 -68q-20 -32 -62 -32q-41 0 -61 32q-13 21 -13 68v2
q-61 -59 -125.5 -82.5t-163.5 -23.5q-104 0 -172 21.5t-115 70.5q-77 80 -77 206zM248 287q0 -173 232 -173q74 0 126.5 13.5t95.5 54.5q53 51 53 175v108h-289q-108 0 -163 -45.5t-55 -132.5zM311 1481q0 39 35 59q18 11 39 11q23 0 39.5 -13t35.5 -44l99 -159
q26 -43 26 -63q0 -40 -35 -60q-18 -11 -39 -11q-23 0 -39.5 13t-35.5 44l-99 159q-26 43 -26 64z" />
    <glyph glyph-name="aacute" unicode="&#xe1;" horiz-adv-x="1078" 
d="M101 286q0 134 93 213t256 79h305v81q0 118 -59 175.5t-189 57.5q-74 0 -124.5 -20.5t-103.5 -68.5q-31 -27 -63 -27q-28 0 -45 19q-18 21 -18 47q0 49 96 112q105 66 259 66q195 0 295 -86t100 -251v-591q0 -47 -13 -68q-20 -32 -62 -32q-41 0 -61 32q-13 21 -13 68v2
q-61 -59 -125.5 -82.5t-163.5 -23.5q-104 0 -172 21.5t-115 70.5q-77 80 -77 206zM248 287q0 -173 232 -173q74 0 126.5 13.5t95.5 54.5q53 51 53 175v108h-289q-108 0 -163 -45.5t-55 -132.5zM480 1334l105 167q19 32 33 42q16 12 37 12t37 -11q36 -21 34 -58
q-1 -21 -25 -59l-104 -166q-19 -30 -34 -42q-18 -13 -37 -13t-37 12q-35 20 -33 58q1 22 24 58z" />
    <glyph glyph-name="acircumflex" unicode="&#xe2;" horiz-adv-x="1078" 
d="M101 286q0 134 93 213t256 79h305v81q0 118 -59 175.5t-189 57.5q-74 0 -124.5 -20.5t-103.5 -68.5q-31 -27 -63 -27q-28 0 -45 19q-18 21 -18 47q0 49 96 112q105 66 259 66q195 0 295 -86t100 -251v-591q0 -47 -13 -68q-20 -32 -62 -32q-41 0 -61 32q-13 21 -13 68v2
q-61 -59 -125.5 -82.5t-163.5 -23.5q-104 0 -172 21.5t-115 70.5q-77 80 -77 206zM248 287q0 -173 232 -173q74 0 126.5 13.5t95.5 54.5q53 51 53 175v108h-289q-108 0 -163 -45.5t-55 -132.5zM518 1393l-159 -159q-28 -28 -50 -34q-30 -6 -54 18q-25 25 -17 55q7 25 32 50
l192 190q28 28 56 28t56 -28l192 -190q27 -27 33 -50q7 -30 -18 -55q-24 -24 -54 -18q-22 6 -50 34z" />
    <glyph glyph-name="atilde" unicode="&#xe3;" horiz-adv-x="1078" 
d="M101 286q0 134 93 213t256 79h305v81q0 118 -59 175.5t-189 57.5q-74 0 -124.5 -20.5t-103.5 -68.5q-31 -27 -63 -27q-28 0 -45 19q-18 21 -18 47q0 49 96 112q105 66 259 66q195 0 295 -86t100 -251v-591q0 -47 -13 -68q-20 -32 -62 -32q-41 0 -61 32q-13 21 -13 68v2
q-61 -59 -125.5 -82.5t-163.5 -23.5q-104 0 -172 21.5t-115 70.5q-77 80 -77 206zM248 287q0 -173 232 -173q74 0 126.5 13.5t95.5 54.5q53 51 53 175v108h-289q-108 0 -163 -45.5t-55 -132.5zM503 1288q-70 42 -114 42q-25 0 -43.5 -6.5t-46.5 -30.5q-31 -26 -52 -26
q-23 0 -38 15t-15 40q0 31 36 62q75 64 157 64q42 0 73 -10.5t74 -36.5q70 -42 113 -42q25 0 43.5 6.5t46.5 30.5q31 26 53 26t37 -15q16 -16 16 -40q0 -30 -37 -62q-75 -64 -157 -64q-42 0 -72.5 10.5t-73.5 36.5z" />
    <glyph glyph-name="adieresis" unicode="&#xe4;" horiz-adv-x="1078" 
d="M101 286q0 134 93 213t256 79h305v81q0 118 -59 175.5t-189 57.5q-74 0 -124.5 -20.5t-103.5 -68.5q-31 -27 -63 -27q-28 0 -45 19q-18 21 -18 47q0 49 96 112q105 66 259 66q195 0 295 -86t100 -251v-591q0 -47 -13 -68q-20 -32 -62 -32q-41 0 -61 32q-13 21 -13 68v2
q-61 -59 -125.5 -82.5t-163.5 -23.5q-104 0 -172 21.5t-115 70.5q-77 80 -77 206zM248 287q0 -173 232 -173q74 0 126.5 13.5t95.5 54.5q53 51 53 175v108h-289q-108 0 -163 -45.5t-55 -132.5zM207 1320q0 38 27 65.5t65 27.5t65.5 -27.5t27.5 -65.5t-27.5 -65t-65.5 -27
t-65 27t-27 65zM644 1320q0 38 27 65.5t65 27.5t65.5 -27.5t27.5 -65.5t-27.5 -65t-65.5 -27t-65 27t-27 65z" />
    <glyph glyph-name="aring" unicode="&#xe5;" horiz-adv-x="1078" 
d="M101 286q0 134 93 213t256 79h305v81q0 118 -59 175.5t-189 57.5q-74 0 -124.5 -20.5t-103.5 -68.5q-31 -27 -63 -27q-28 0 -45 19q-18 21 -18 47q0 49 96 112q105 66 259 66q195 0 295 -86t100 -251v-591q0 -47 -13 -68q-20 -32 -62 -32q-41 0 -61 32q-13 21 -13 68v2
q-61 -59 -125.5 -82.5t-163.5 -23.5q-104 0 -172 21.5t-115 70.5q-77 80 -77 206zM248 287q0 -173 232 -173q74 0 126.5 13.5t95.5 54.5q53 51 53 175v108h-289q-108 0 -163 -45.5t-55 -132.5zM275 1407q0 101 71.5 172t171.5 71t171.5 -71t71.5 -172t-71.5 -172t-171.5 -71
t-171.5 71t-71.5 172zM377 1407q0 -59 41.5 -100t99.5 -41t99.5 41t41.5 100t-41.5 100t-99.5 41t-99.5 -41t-41.5 -100z" />
    <glyph glyph-name="ae" unicode="&#xe6;" horiz-adv-x="1708" 
d="M1195 -12q-251 0 -360 175q-68 -97 -153 -136t-217 -39q-104 0 -172 21.5t-115 70.5q-77 80 -77 206q0 134 93 213t256 79h305v81q0 118 -59 175.5t-189 57.5q-74 0 -124.5 -20.5t-103.5 -68.5q-31 -27 -63 -27q-28 0 -45 19q-18 21 -18 47q0 49 96 112q105 66 259 66
q260 0 346 -157q108 157 315 157q190 0 301 -127t113 -340q0 -48 -20 -68q-19 -19 -66 -19h-595q0 -166 77 -257.5t222 -91.5q131 0 216 72q43 36 70 36q24 0 43.5 -19.5t19.5 -44.5q0 -50 -104 -115q-97 -58 -251 -58zM902 579h535q-4 96 -32 163q-29 70 -91.5 110.5
t-144.5 40.5t-144.5 -41t-90.5 -110q-28 -67 -32 -163zM248 287q0 -173 232 -173q74 0 126.5 13.5t95.5 54.5q53 51 53 175v108h-289q-108 0 -163 -45.5t-55 -132.5z" />
    <glyph glyph-name="ccedilla" unicode="&#xe7;" horiz-adv-x="1001" 
d="M129 504q0 250 122.5 383t322.5 133q140 0 246 -83q41 -33 56.5 -51t15.5 -44t-22 -48q-21 -19 -46 -19q-16 0 -29.5 8t-41.5 31q-50 41 -89.5 57t-89.5 16q-151 0 -230 -112q-35 -50 -50 -112.5t-15 -158.5t15 -158.5t50 -112.5q79 -112 230 -112q51 0 92 16t87 57
q43 38 71 38q26 0 46 -18q22 -22 22 -48q0 -25 -17.5 -46t-54.5 -50q-105 -82 -246 -82q-200 0 -322.5 133t-122.5 383zM386 -346l104 167q19 30 34 42q16 12 37 12t37 -11q36 -21 34 -59q-1 -20 -25 -58l-104 -167q-19 -30 -34 -42q-16 -12 -37 -12q-20 0 -37 11
q-36 21 -34 59q1 20 25 58z" />
    <glyph glyph-name="egrave" unicode="&#xe8;" horiz-adv-x="1083" 
d="M872 466h-594q0 -166 77 -257.5t222 -91.5q131 0 216 72q25 21 38.5 28.5t30.5 7.5q24 0 44 -19.5t20 -44.5q0 -49 -105 -115q-97 -58 -251 -58q-207 0 -324 128.5t-117 387.5q0 247 111.5 381.5t304.5 134.5q190 0 300.5 -127t112.5 -340q0 -48 -20 -68q-19 -19 -66 -19
zM278 579h534q-4 96 -32 163q-29 70 -91 110.5t-144 40.5t-145 -41t-91 -110q-27 -64 -31 -163zM338 1481q0 39 35 59q18 11 39 11q23 0 39 -13t35 -44l100 -159q25 -41 25 -63q0 -40 -34 -60q-18 -11 -39 -11q-23 0 -39.5 13t-35.5 44l-99 159q-26 43 -26 64z" />
    <glyph glyph-name="eacute" unicode="&#xe9;" horiz-adv-x="1083" 
d="M872 466h-594q0 -166 77 -257.5t222 -91.5q131 0 216 72q25 21 38.5 28.5t30.5 7.5q24 0 44 -19.5t20 -44.5q0 -49 -105 -115q-97 -58 -251 -58q-207 0 -324 128.5t-117 387.5q0 247 111.5 381.5t304.5 134.5q190 0 300.5 -127t112.5 -340q0 -48 -20 -68q-19 -19 -66 -19
zM278 579h534q-4 96 -32 163q-29 70 -91 110.5t-144 40.5t-145 -41t-91 -110q-27 -64 -31 -163zM507 1334l104 167q19 30 34 42q16 12 37 12q20 0 37 -11q36 -21 34 -58q-1 -21 -25 -59l-104 -166q-19 -30 -34 -42q-18 -13 -37 -13t-37 12q-36 21 -34 58q1 20 25 58z" />
    <glyph glyph-name="ecircumflex" unicode="&#xea;" horiz-adv-x="1083" 
d="M872 466h-594q0 -166 77 -257.5t222 -91.5q131 0 216 72q25 21 38.5 28.5t30.5 7.5q24 0 44 -19.5t20 -44.5q0 -49 -105 -115q-97 -58 -251 -58q-207 0 -324 128.5t-117 387.5q0 247 111.5 381.5t304.5 134.5q190 0 300.5 -127t112.5 -340q0 -48 -20 -68q-19 -19 -66 -19
zM278 579h534q-4 96 -32 163q-29 70 -91 110.5t-144 40.5t-145 -41t-91 -110q-27 -64 -31 -163zM545 1393l-159 -159q-28 -28 -50 -34q-30 -6 -54 18q-25 25 -18 55q6 23 33 50l191 190q28 28 57 28q28 0 56 -28l192 -190q25 -25 32 -50q8 -30 -17 -55q-24 -24 -54 -18
q-23 6 -51 34z" />
    <glyph glyph-name="edieresis" unicode="&#xeb;" horiz-adv-x="1083" 
d="M872 466h-594q0 -166 77 -257.5t222 -91.5q131 0 216 72q25 21 38.5 28.5t30.5 7.5q24 0 44 -19.5t20 -44.5q0 -49 -105 -115q-97 -58 -251 -58q-207 0 -324 128.5t-117 387.5q0 247 111.5 381.5t304.5 134.5q190 0 300.5 -127t112.5 -340q0 -48 -20 -68q-19 -19 -66 -19
zM278 579h534q-4 96 -32 163q-29 70 -91 110.5t-144 40.5t-145 -41t-91 -110q-27 -64 -31 -163zM233 1320q0 38 27.5 65.5t65.5 27.5t65.5 -27.5t27.5 -65.5t-27.5 -65t-65.5 -27t-65.5 27t-27.5 65zM671 1320q0 38 27 65.5t65 27.5t65.5 -27.5t27.5 -65.5t-27.5 -65
t-65.5 -27t-65 27t-27 65z" />
    <glyph glyph-name="igrave" unicode="&#xec;" horiz-adv-x="530" 
d="M340 915v-823q0 -47 -13 -68q-20 -32 -62 -32q-41 0 -61 32q-14 23 -14 68v823q0 46 14 69q20 32 61 32q42 0 62 -32q13 -21 13 -69zM58 1481q0 39 35 59q18 11 39 11q23 0 39.5 -13t35.5 -44l99 -159q26 -43 26 -63q0 -40 -35 -60q-18 -11 -39 -11q-23 0 -39.5 13
t-35.5 44l-99 159q-26 43 -26 64z" />
    <glyph glyph-name="iacute" unicode="&#xed;" horiz-adv-x="530" 
d="M340 915v-823q0 -47 -13 -68q-20 -32 -62 -32q-41 0 -61 32q-14 23 -14 68v823q0 46 14 69q20 32 61 32q42 0 62 -32q13 -21 13 -69zM227 1334l105 167q19 30 34 42q17 12 36 12q20 0 37 -11q36 -21 34 -58q-1 -23 -24 -59l-105 -166q-19 -30 -34 -42q-18 -13 -37 -13
q-18 0 -36 12q-36 21 -34 58q1 22 24 58z" />
    <glyph glyph-name="icircumflex" unicode="&#xee;" horiz-adv-x="530" 
d="M265 1393l-159 -159q-28 -28 -50 -34q-30 -6 -54 18q-25 25 -17 55q7 25 32 50l192 190q28 28 56 28q29 0 57 -28l191 -190q27 -27 33 -50q7 -30 -18 -55q-24 -24 -54 -18q-22 6 -50 34zM340 915v-823q0 -47 -13 -68q-20 -32 -62 -32q-41 0 -61 32q-14 23 -14 68v823
q0 46 14 69q20 32 61 32q42 0 62 -32q13 -21 13 -69z" />
    <glyph glyph-name="idieresis" unicode="&#xef;" horiz-adv-x="530" 
d="M-19 1320q0 38 27 65.5t65 27.5t65.5 -27.5t27.5 -65.5t-27.5 -65t-65.5 -27t-65 27t-27 65zM365 1320q0 38 27 65.5t65 27.5t65.5 -27.5t27.5 -65.5t-27.5 -65t-65.5 -27t-65 27t-27 65zM340 915v-823q0 -47 -13 -68q-20 -32 -62 -32q-41 0 -61 32q-14 23 -14 68v823
q0 46 14 69q20 32 61 32q42 0 62 -32q13 -21 13 -69z" />
    <glyph glyph-name="eth" unicode="&#xf0;" horiz-adv-x="1086" 
d="M330 1274q15 10 54 10h125l-30 61q-18 37 -18 61q0 27 21 45.5t48 18.5q26 0 42.5 -16t31.5 -47l62 -123h114q40 0 55 -10q24 -14 24 -47t-24 -47q-17 -11 -55 -11h-57l143 -286q50 -100 68.5 -182.5t18.5 -199.5q0 -131 -26.5 -230t-96.5 -170q-111 -113 -287 -113
t-287 113q-70 71 -96.5 170t-26.5 230t26.5 229.5t96.5 169.5q105 107 287 107q64 0 115 -23l-92 185h-182q-38 0 -54 11q-25 15 -25 47t25 47zM805 501q0 107 -15 182t-65 125q-74 74 -182 74t-182 -74q-50 -50 -64.5 -124.5t-14.5 -182.5q0 -109 14.5 -183.5t64.5 -124.5
q76 -74 182 -74t182 74q50 50 65 125t15 183z" />
    <glyph glyph-name="ntilde" unicode="&#xf1;" horiz-adv-x="1157" 
d="M983 644v-552q0 -46 -13 -68q-20 -32 -62 -32q-43 0 -61 32q-13 22 -13 68v526q0 132 -65 200.5t-182 68.5q-118 0 -185 -69.5t-67 -199.5v-526q0 -46 -13 -68q-20 -32 -62 -32q-41 0 -61 32q-14 24 -14 68v823q0 46 14 69q20 32 61 32q42 0 62 -32q13 -21 13 -69v-18
q111 123 282 123q166 0 262 -94q104 -101 104 -282zM566 1288q-70 42 -113 42q-25 0 -44 -7t-47 -30q-31 -26 -52 -26q-23 0 -38 15t-15 40q0 30 37 62q75 64 157 64q42 0 72.5 -10.5t73.5 -36.5q70 -42 114 -42q25 0 43.5 6.5t46.5 30.5q31 26 52 26q23 0 38 -15t15 -40
q0 -30 -37 -62q-75 -64 -156 -64q-42 0 -73 10.5t-74 36.5z" />
    <glyph glyph-name="ograve" unicode="&#xf2;" 
d="M545 121q109 0 182 73q48 48 65 126.5t17 183.5t-17 183t-65 126q-74 74 -182 74q-109 0 -183 -74q-48 -48 -64.5 -125.5t-16.5 -183.5t16.5 -184t64.5 -126q73 -73 183 -73zM545 1020q175 0 290 -115q72 -73 97.5 -170t25.5 -231q0 -133 -25.5 -231t-97.5 -171
q-114 -114 -290 -114t-290 114q-72 73 -98 171t-26 231t26 230t98 171q115 115 290 115zM338 1481q0 39 35 59q18 11 39 11q23 0 39 -13t35 -44l100 -159q25 -41 25 -63q0 -40 -34 -60q-18 -11 -39 -11q-23 0 -39.5 13t-35.5 44l-99 159q-26 43 -26 64z" />
    <glyph glyph-name="oacute" unicode="&#xf3;" 
d="M545 121q109 0 182 73q48 48 65 126.5t17 183.5t-17 183t-65 126q-74 74 -182 74q-109 0 -183 -74q-48 -48 -64.5 -125.5t-16.5 -183.5t16.5 -184t64.5 -126q73 -73 183 -73zM545 1020q175 0 290 -115q72 -73 97.5 -170t25.5 -231q0 -133 -25.5 -231t-97.5 -171
q-114 -114 -290 -114t-290 114q-72 73 -98 171t-26 231t26 230t98 171q115 115 290 115zM507 1334l104 167q19 30 34 42q16 12 37 12q20 0 37 -11q36 -21 34 -58q-1 -21 -25 -59l-104 -166q-19 -30 -34 -42q-18 -13 -37 -13t-37 12q-36 21 -34 58q1 20 25 58z" />
    <glyph glyph-name="ocircumflex" unicode="&#xf4;" 
d="M545 121q109 0 182 73q48 48 65 126.5t17 183.5t-17 183t-65 126q-74 74 -182 74q-109 0 -183 -74q-48 -48 -64.5 -125.5t-16.5 -183.5t16.5 -184t64.5 -126q73 -73 183 -73zM545 1020q175 0 290 -115q72 -73 97.5 -170t25.5 -231q0 -133 -25.5 -231t-97.5 -171
q-114 -114 -290 -114t-290 114q-72 73 -98 171t-26 231t26 230t98 171q115 115 290 115zM545 1393l-159 -159q-28 -28 -50 -34q-30 -6 -54 18q-25 25 -18 55q6 23 33 50l191 190q28 28 57 28q28 0 56 -28l192 -190q25 -25 32 -50q8 -30 -17 -55q-24 -24 -54 -18
q-23 6 -51 34z" />
    <glyph glyph-name="otilde" unicode="&#xf5;" 
d="M545 121q109 0 182 73q48 48 65 126.5t17 183.5t-17 183t-65 126q-74 74 -182 74q-109 0 -183 -74q-48 -48 -64.5 -125.5t-16.5 -183.5t16.5 -184t64.5 -126q73 -73 183 -73zM545 1020q175 0 290 -115q72 -73 97.5 -170t25.5 -231q0 -133 -25.5 -231t-97.5 -171
q-114 -114 -290 -114t-290 114q-72 73 -98 171t-26 231t26 230t98 171q115 115 290 115zM529 1288q-70 42 -113 42q-25 0 -43.5 -6.5t-46.5 -30.5q-31 -26 -53 -26t-37 15q-16 16 -16 40q0 30 37 62q75 64 157 64q42 0 72.5 -10.5t73.5 -36.5q70 -42 114 -42q25 0 43.5 6.5
t46.5 30.5q31 26 52 26q23 0 38 -15t15 -40q0 -31 -36 -62q-75 -64 -157 -64q-42 0 -73 10.5t-74 36.5z" />
    <glyph glyph-name="odieresis" unicode="&#xf6;" 
d="M545 121q109 0 182 73q48 48 65 126.5t17 183.5t-17 183t-65 126q-74 74 -182 74q-109 0 -183 -74q-48 -48 -64.5 -125.5t-16.5 -183.5t16.5 -184t64.5 -126q73 -73 183 -73zM545 1020q175 0 290 -115q72 -73 97.5 -170t25.5 -231q0 -133 -25.5 -231t-97.5 -171
q-114 -114 -290 -114t-290 114q-72 73 -98 171t-26 231t26 230t98 171q115 115 290 115zM233 1320q0 38 27.5 65.5t65.5 27.5t65.5 -27.5t27.5 -65.5t-27.5 -65t-65.5 -27t-65.5 27t-27.5 65zM671 1320q0 38 27 65.5t65 27.5t65.5 -27.5t27.5 -65.5t-27.5 -65t-65.5 -27
t-65 27t-27 65z" />
    <glyph glyph-name="divide" unicode="&#xf7;" horiz-adv-x="1069" 
d="M970 552q0 -36 -29 -55q-19 -12 -62 -12h-689q-43 0 -62 12q-29 19 -29 55t29 55q17 11 62 11h689q45 0 62 -11q29 -19 29 -55zM416 184q0 49 33.5 83t82.5 34t83 -34t34 -83t-34 -82.5t-83 -33.5t-82.5 33.5t-33.5 82.5zM418 918q0 49 34 82.5t83 33.5t82.5 -33.5
t33.5 -82.5t-33.5 -83t-82.5 -34t-83 34t-34 83z" />
    <glyph glyph-name="oslash" unicode="&#xf8;" 
d="M545 1020q120 0 210 -53l54 92q22 39 48 46q20 5 40 -7q30 -17 28 -47q-1 -17 -19 -47l-64 -107q68 -73 92 -168t24 -225q0 -133 -25.5 -231t-97.5 -171q-114 -114 -290 -114q-121 0 -212 54l-55 -94q-22 -39 -49 -46q-20 -5 -40 7q-29 16 -27 47q1 19 18 47l66 110
q-67 72 -91 167t-24 224q0 133 26 230t98 171q115 115 290 115zM334 236l357 607q-66 44 -146 44q-109 0 -184 -75q-50 -50 -65 -125.5t-15 -185.5q0 -87 10 -151.5t43 -113.5zM756 772l-358 -607q66 -44 147 -44q108 0 183 75q50 50 65.5 126t15.5 185q0 87 -10 151.5
t-43 113.5z" />
    <glyph glyph-name="ugrave" unicode="&#xf9;" horiz-adv-x="1157" 
d="M174 364v551q0 47 13 69q20 32 62 32q43 0 61 -32q14 -24 14 -69v-526q0 -132 64.5 -200t181.5 -68q118 0 185 69t67 199v526q0 45 14 69q20 32 61 32t61 -32q14 -24 14 -69v-823q0 -45 -14 -68q-20 -32 -61 -32t-61 32q-14 23 -14 68v19q-111 -123 -282 -123
q-165 0 -261 94q-105 102 -105 282zM365 1481q0 39 34 59q18 11 39 11q23 0 39.5 -13t35.5 -44l99 -159q26 -43 26 -63q0 -40 -35 -60q-18 -11 -39 -11q-23 0 -39.5 13t-35.5 44l-99 159q-25 41 -25 64z" />
    <glyph glyph-name="uacute" unicode="&#xfa;" horiz-adv-x="1157" 
d="M174 364v551q0 47 13 69q20 32 62 32q43 0 61 -32q14 -24 14 -69v-526q0 -132 64.5 -200t181.5 -68q118 0 185 69t67 199v526q0 45 14 69q20 32 61 32t61 -32q14 -24 14 -69v-823q0 -45 -14 -68q-20 -32 -61 -32t-61 32q-14 23 -14 68v19q-111 -123 -282 -123
q-165 0 -261 94q-105 102 -105 282zM534 1334l104 167q19 30 34 42q16 12 37 12q19 0 36 -11q36 -21 34 -58q-1 -23 -24 -59l-105 -166q-19 -30 -34 -42q-18 -13 -36 -13q-19 0 -37 12q-36 21 -34 58q1 20 25 58z" />
    <glyph glyph-name="ucircumflex" unicode="&#xfb;" horiz-adv-x="1157" 
d="M174 364v551q0 47 13 69q20 32 62 32q43 0 61 -32q14 -24 14 -69v-526q0 -132 64.5 -200t181.5 -68q118 0 185 69t67 199v526q0 45 14 69q20 32 61 32t61 -32q14 -24 14 -69v-823q0 -45 -14 -68q-20 -32 -61 -32t-61 32q-14 23 -14 68v19q-111 -123 -282 -123
q-165 0 -261 94q-105 102 -105 282zM571 1393l-158 -159q-28 -28 -51 -34q-30 -6 -54 18q-25 25 -17 55q6 23 33 50l191 190q28 28 56 28q29 0 57 -28l191 -190q27 -27 33 -50q8 -30 -17 -55q-24 -24 -55 -18q-22 6 -50 34z" />
    <glyph glyph-name="udieresis" unicode="&#xfc;" horiz-adv-x="1157" 
d="M174 364v551q0 47 13 69q20 32 62 32q43 0 61 -32q14 -24 14 -69v-526q0 -132 64.5 -200t181.5 -68q118 0 185 69t67 199v526q0 45 14 69q20 32 61 32t61 -32q14 -24 14 -69v-823q0 -45 -14 -68q-20 -32 -61 -32t-61 32q-14 23 -14 68v19q-111 -123 -282 -123
q-165 0 -261 94q-105 102 -105 282zM260 1320q0 38 27 65.5t65 27.5t65.5 -27.5t27.5 -65.5t-27.5 -65t-65.5 -27t-65 27t-27 65zM697 1320q0 38 27.5 65.5t65.5 27.5t65.5 -27.5t27.5 -65.5t-27.5 -65t-65.5 -27t-65.5 27t-27.5 65z" />
    <glyph glyph-name="yacute" unicode="&#xfd;" horiz-adv-x="893" 
d="M446 200l245 744q23 72 74 72q22 0 41.5 -12.5t26.5 -31.5q9 -25 -7 -73l-395 -1142q-26 -78 -72 -121q-71 -68 -185 -68q-51 0 -70 15q-22 19 -22 51q0 36 23 53q19 14 55 14q58 0 93.5 27.5t58.5 96.5l64 190l-308 884q-16 48 -7 73q7 19 26.5 31.5t41.5 12.5
q51 0 74 -72zM409 1334l104 167q19 30 34 42q16 12 37 12q20 0 37 -11q35 -20 33 -58q-1 -23 -24 -59l-105 -166q-19 -32 -33 -42q-18 -13 -37 -13t-37 12q-36 21 -34 58q1 20 25 58z" />
    <glyph glyph-name="thorn" unicode="&#xfe;" horiz-adv-x="1121" 
d="M841 504q0 66 -5 116.5t-21 103t-43 86.5t-73.5 55.5t-110.5 21.5t-110.5 -21.5t-73.5 -55.5t-43 -86.5t-21 -103t-5 -116.5t5 -116.5t21 -103t43 -86.5t73.5 -55.5t110.5 -21.5t110.5 21.5t73.5 55.5t43 86.5t21 103t5 116.5zM990 504q0 -303 -125 -428
q-88 -88 -245 -88q-91 0 -158.5 27.5t-126.5 101.5v-475q0 -48 -13 -69q-20 -32 -62 -32q-41 0 -61 32q-14 23 -14 69v1724q0 46 14 69q19 31 61 31q43 0 62 -31q13 -21 13 -69v-475q59 74 126.5 101.5t158.5 27.5q157 0 245 -88q125 -125 125 -428z" />
    <glyph glyph-name="ydieresis" unicode="&#xff;" horiz-adv-x="893" 
d="M446 200l245 744q23 72 74 72q22 0 41.5 -12.5t26.5 -31.5q9 -25 -7 -73l-395 -1142q-26 -78 -72 -121q-71 -68 -185 -68q-51 0 -70 15q-22 19 -22 51q0 36 23 53q19 14 55 14q58 0 93.5 27.5t58.5 96.5l64 190l-308 884q-16 48 -7 73q7 19 26.5 31.5t41.5 12.5
q51 0 74 -72zM135 1320q0 38 27 65.5t65 27.5t66 -27.5t28 -65.5t-28 -65t-66 -27t-65 27t-27 65zM572 1320q0 38 27.5 65.5t65.5 27.5t65.5 -27.5t27.5 -65.5t-27.5 -65t-65.5 -27t-65.5 27t-27.5 65z" />
    <glyph glyph-name="Amacron" unicode="&#x100;" horiz-adv-x="1251" 
d="M63 121l474 1263q14 38 30 57q23 25 59 25q35 0 58 -25q19 -22 31 -57l473 -1263q8 -24 11.5 -39t0 -33.5t-18.5 -33.5q-23 -23 -58 -23q-22 0 -40 13q-20 16 -37 63l-97 262h-648l-96 -262q-17 -46 -38 -63q-18 -13 -40 -13q-34 0 -57 23q-15 15 -18.5 33.5t0 33.5
t11.5 39zM626 1215l-276 -750h550zM848 1626h-445q-40 0 -59 11q-27 17 -27 52q0 34 27 51q19 11 59 11h445q40 0 59 -11q27 -17 27 -51q0 -35 -27 -52q-19 -11 -59 -11z" />
    <glyph glyph-name="amacron" unicode="&#x101;" horiz-adv-x="1078" 
d="M101 286q0 134 93 213t256 79h305v81q0 118 -59 175.5t-189 57.5q-74 0 -124.5 -20.5t-103.5 -68.5q-31 -27 -63 -27q-28 0 -45 19q-18 21 -18 47q0 49 96 112q105 66 259 66q195 0 295 -86t100 -251v-591q0 -47 -13 -68q-20 -32 -62 -32q-41 0 -61 32q-13 21 -13 68v2
q-61 -59 -125.5 -82.5t-163.5 -23.5q-104 0 -172 21.5t-115 70.5q-77 80 -77 206zM248 287q0 -173 232 -173q74 0 126.5 13.5t95.5 54.5q53 51 53 175v108h-289q-108 0 -163 -45.5t-55 -132.5zM740 1257h-444q-38 0 -59 12q-27 17 -27 51t27 51q19 11 59 11h444q41 0 60 -11
q26 -17 26 -51t-26 -51q-21 -12 -60 -12z" />
    <glyph glyph-name="Abreve" unicode="&#x102;" horiz-adv-x="1251" 
d="M63 121l474 1263q14 38 30 57q23 25 59 25q35 0 58 -25q19 -22 31 -57l473 -1263q8 -24 11.5 -39t0 -33.5t-18.5 -33.5q-23 -23 -58 -23q-22 0 -40 13q-20 16 -37 63l-97 262h-648l-96 -262q-17 -46 -38 -63q-18 -13 -40 -13q-34 0 -57 23q-15 15 -18.5 33.5t0 33.5
t11.5 39zM626 1215l-276 -750h550zM626 1590q-138 0 -250 109q-32 30 -34 56q-3 25 16 46q20 22 46 20q22 -2 49 -27q87 -82 173 -82t173 82q27 25 48 27q26 2 46 -20q19 -21 16 -46q-2 -27 -33 -56q-112 -109 -250 -109z" />
    <glyph glyph-name="abreve" unicode="&#x103;" horiz-adv-x="1078" 
d="M101 286q0 134 93 213t256 79h305v81q0 118 -59 175.5t-189 57.5q-74 0 -124.5 -20.5t-103.5 -68.5q-31 -27 -63 -27q-28 0 -45 19q-18 21 -18 47q0 49 96 112q105 66 259 66q195 0 295 -86t100 -251v-591q0 -47 -13 -68q-20 -32 -62 -32q-41 0 -61 32q-13 21 -13 68v2
q-61 -59 -125.5 -82.5t-163.5 -23.5q-104 0 -172 21.5t-115 70.5q-77 80 -77 206zM248 287q0 -173 232 -173q74 0 126.5 13.5t95.5 54.5q53 51 53 175v108h-289q-108 0 -163 -45.5t-55 -132.5zM518 1208q-138 0 -250 109q-32 30 -34 56q-3 24 17 46t46 20q21 -2 48 -27
q87 -82 173 -82t173 82q27 25 48 27q26 2 46 -20t17 -46q-2 -26 -34 -56q-112 -109 -250 -109z" />
    <glyph glyph-name="Aogonek" unicode="&#x104;" horiz-adv-x="1251" 
d="M63 121l474 1263q14 38 30 57q23 25 59 25q35 0 58 -25q19 -22 31 -57l473 -1263q8 -24 11.5 -39t0 -33.5t-18.5 -33.5q-23 -23 -58 -23q-22 0 -40 13q-20 16 -37 63l-97 262h-648l-96 -262q-17 -46 -38 -63q-18 -13 -40 -13q-34 0 -57 23q-15 15 -18.5 33.5t0 33.5
t11.5 39zM626 1215l-276 -750h550zM953 -346l105 167q19 30 34 42q16 12 36 12t37 -11q36 -21 34 -59q-1 -22 -24 -58l-105 -167q-19 -30 -34 -42q-16 -12 -37 -12q-19 0 -36 11q-36 21 -34 59q1 22 24 58z" />
    <glyph glyph-name="aogonek" unicode="&#x105;" horiz-adv-x="1078" 
d="M101 286q0 134 93 213t256 79h305v81q0 118 -59 175.5t-189 57.5q-74 0 -124.5 -20.5t-103.5 -68.5q-31 -27 -63 -27q-28 0 -45 19q-18 21 -18 47q0 49 96 112q105 66 259 66q195 0 295 -86t100 -251v-591q0 -47 -13 -68q-20 -32 -62 -32q-41 0 -61 32q-13 21 -13 68v2
q-61 -59 -125.5 -82.5t-163.5 -23.5q-104 0 -172 21.5t-115 70.5q-77 80 -77 206zM248 287q0 -173 232 -173q74 0 126.5 13.5t95.5 54.5q53 51 53 175v108h-289q-108 0 -163 -45.5t-55 -132.5zM636 -346l104 167q19 30 34 42q16 12 37 12q20 0 37 -11q36 -21 34 -59
q-1 -20 -25 -58l-104 -167q-19 -30 -34 -42q-17 -12 -37 -12t-37 11q-36 21 -34 59q1 20 25 58z" />
    <glyph glyph-name="Cacute" unicode="&#x106;" horiz-adv-x="1306" 
d="M156 729q0 114 2 179.5t10 134t24.5 112.5t43 87t68.5 85q141 143 363 143q247 0 391 -175q43 -52 68 -112.5t25 -99.5q0 -36 -21 -57q-20 -20 -52 -20q-30 0 -48 16q-22 20 -37 65q-39 117 -123 180.5t-204 63.5q-149 0 -250 -104q-67 -68 -85 -165.5t-18 -332.5
t18 -332.5t85 -165.5q101 -104 250 -104q120 0 204 63.5t123 180.5q15 45 37 65q19 17 48 17q31 0 52 -21t21 -57q0 -39 -25 -99.5t-68 -112.5q-144 -175 -391 -175q-222 0 -363 143q-42 42 -68.5 85t-43 87t-24.5 112.5t-10 134t-2 179.5zM628 1710l104 167q19 30 34 42
q16 12 37 12t37 -11q35 -20 33 -58q-1 -23 -24 -59l-105 -167q-19 -32 -33 -42q-17 -12 -37 -12t-37 11q-36 21 -34 59q1 20 25 58z" />
    <glyph glyph-name="cacute" unicode="&#x107;" horiz-adv-x="1001" 
d="M129 504q0 250 122.5 383t322.5 133q140 0 246 -83q41 -33 56.5 -51t15.5 -44t-22 -48q-21 -19 -46 -19q-16 0 -29.5 8t-41.5 31q-50 41 -89.5 57t-89.5 16q-151 0 -230 -112q-35 -50 -50 -112.5t-15 -158.5t15 -158.5t50 -112.5q79 -112 230 -112q51 0 92 16t87 57
q43 38 71 38q26 0 46 -18q22 -22 22 -48q0 -25 -17.5 -46t-54.5 -50q-105 -82 -246 -82q-200 0 -322.5 133t-122.5 383zM507 1334l104 167q19 30 34 42q16 12 37 12q20 0 37 -11q36 -21 34 -58q-1 -21 -25 -59l-104 -166q-19 -30 -34 -42q-18 -13 -37 -13t-37 12
q-36 21 -34 58q1 20 25 58z" />
    <glyph glyph-name="Ccircumflex" unicode="&#x108;" horiz-adv-x="1306" 
d="M156 729q0 114 2 179.5t10 134t24.5 112.5t43 87t68.5 85q141 143 363 143q247 0 391 -175q43 -52 68 -112.5t25 -99.5q0 -36 -21 -57q-20 -20 -52 -20q-30 0 -48 16q-22 20 -37 65q-39 117 -123 180.5t-204 63.5q-149 0 -250 -104q-67 -68 -85 -165.5t-18 -332.5
t18 -332.5t85 -165.5q101 -104 250 -104q120 0 204 63.5t123 180.5q15 45 37 65q19 17 48 17q31 0 52 -21t21 -57q0 -39 -25 -99.5t-68 -112.5q-144 -175 -391 -175q-222 0 -363 143q-42 42 -68.5 85t-43 87t-24.5 112.5t-10 134t-2 179.5zM668 1776l-159 -159
q-28 -28 -50 -34q-31 -6 -55 18q-25 25 -17 55q6 23 33 50l191 190q28 28 57 28q28 0 56 -28l191 -190q27 -27 33 -50q8 -30 -17 -55q-24 -24 -54 -18q-23 6 -51 34z" />
    <glyph glyph-name="ccircumflex" unicode="&#x109;" horiz-adv-x="1001" 
d="M129 504q0 250 122.5 383t322.5 133q140 0 246 -83q41 -33 56.5 -51t15.5 -44t-22 -48q-21 -19 -46 -19q-16 0 -29.5 8t-41.5 31q-50 41 -89.5 57t-89.5 16q-151 0 -230 -112q-35 -50 -50 -112.5t-15 -158.5t15 -158.5t50 -112.5q79 -112 230 -112q51 0 92 16t87 57
q43 38 71 38q26 0 46 -18q22 -22 22 -48q0 -25 -17.5 -46t-54.5 -50q-105 -82 -246 -82q-200 0 -322.5 133t-122.5 383zM545 1393l-159 -159q-28 -28 -50 -34q-30 -6 -54 18q-25 25 -18 55q6 23 33 50l191 190q28 28 57 28q28 0 56 -28l192 -190q25 -25 32 -50
q8 -30 -17 -55q-24 -24 -54 -18q-23 6 -51 34z" />
    <glyph glyph-name="Cdotaccent" unicode="&#x10a;" horiz-adv-x="1306" 
d="M156 729q0 114 2 179.5t10 134t24.5 112.5t43 87t68.5 85q141 143 363 143q247 0 391 -175q43 -52 68 -112.5t25 -99.5q0 -36 -21 -57q-20 -20 -52 -20q-30 0 -48 16q-22 20 -37 65q-39 117 -123 180.5t-204 63.5q-149 0 -250 -104q-67 -68 -85 -165.5t-18 -332.5
t18 -332.5t85 -165.5q101 -104 250 -104q120 0 204 63.5t123 180.5q15 45 37 65q19 17 48 17q31 0 52 -21t21 -57q0 -39 -25 -99.5t-68 -112.5q-144 -175 -391 -175q-222 0 -363 143q-42 42 -68.5 85t-43 87t-24.5 112.5t-10 134t-2 179.5zM575 1717q0 38 27.5 65t65.5 27
t65 -27t27 -65t-27 -65t-65 -27t-65.5 27t-27.5 65z" />
    <glyph glyph-name="cdotaccent" unicode="&#x10b;" horiz-adv-x="1001" 
d="M129 504q0 250 122.5 383t322.5 133q140 0 246 -83q41 -33 56.5 -51t15.5 -44t-22 -48q-21 -19 -46 -19q-16 0 -29.5 8t-41.5 31q-50 41 -89.5 57t-89.5 16q-151 0 -230 -112q-35 -50 -50 -112.5t-15 -158.5t15 -158.5t50 -112.5q79 -112 230 -112q51 0 92 16t87 57
q43 38 71 38q26 0 46 -18q22 -22 22 -48q0 -25 -17.5 -46t-54.5 -50q-105 -82 -246 -82q-200 0 -322.5 133t-122.5 383zM453 1335q0 38 27 65t65 27t65 -27t27 -65t-27 -65t-65 -27t-65 27t-27 65z" />
    <glyph glyph-name="Ccaron" unicode="&#x10c;" horiz-adv-x="1306" 
d="M156 729q0 114 2 179.5t10 134t24.5 112.5t43 87t68.5 85q141 143 363 143q247 0 391 -175q43 -52 68 -112.5t25 -99.5q0 -36 -21 -57q-20 -20 -52 -20q-30 0 -48 16q-22 20 -37 65q-39 117 -123 180.5t-204 63.5q-149 0 -250 -104q-67 -68 -85 -165.5t-18 -332.5
t18 -332.5t85 -165.5q101 -104 250 -104q120 0 204 63.5t123 180.5q15 45 37 65q19 17 48 17q31 0 52 -21t21 -57q0 -39 -25 -99.5t-68 -112.5q-144 -175 -391 -175q-222 0 -363 143q-42 42 -68.5 85t-43 87t-24.5 112.5t-10 134t-2 179.5zM509 1886l159 -159l158 159
q28 28 51 34q32 6 54 -17q23 -23 17 -56q-4 -21 -33 -50l-191 -190q-28 -28 -56 -28q-29 0 -57 28l-191 190q-29 29 -33 50q-7 33 17 56q22 24 55 17q22 -6 50 -34z" />
    <glyph glyph-name="ccaron" unicode="&#x10d;" horiz-adv-x="1001" 
d="M129 504q0 250 122.5 383t322.5 133q140 0 246 -83q41 -33 56.5 -51t15.5 -44t-22 -48q-21 -19 -46 -19q-16 0 -29.5 8t-41.5 31q-50 41 -89.5 57t-89.5 16q-151 0 -230 -112q-35 -50 -50 -112.5t-15 -158.5t15 -158.5t50 -112.5q79 -112 230 -112q51 0 92 16t87 57
q43 38 71 38q26 0 46 -18q22 -22 22 -48q0 -25 -17.5 -46t-54.5 -50q-105 -82 -246 -82q-200 0 -322.5 133t-122.5 383zM386 1503l159 -158l158 158q28 28 51 34q32 6 54 -17q24 -24 17 -56q-5 -22 -32 -50l-192 -190q-28 -28 -56 -28q-29 0 -57 28l-191 190q-29 29 -33 50
q-6 32 18 56q22 23 54 17q22 -6 50 -34z" />
    <glyph glyph-name="Dcaron" unicode="&#x10e;" horiz-adv-x="1382" 
d="M306 0q-52 0 -74 22q-21 21 -21 73v1268q0 53 21 74t74 21h407q124 0 217.5 -37t167.5 -116q31 -34 54 -73.5t37 -90t22 -91t11.5 -105.5t4 -103.5t0.5 -112.5t-0.5 -112.5t-4 -103t-11.5 -105.5t-22 -91t-37 -89.5t-54 -73.5q-144 -154 -385 -154h-407zM686 1319h-317
v-1180h317q191 0 288 108q33 36 53.5 86t29 120.5t10.5 126t2 149.5t-2 149.5t-10.5 126t-29 120.5t-53.5 86q-97 108 -288 108zM528 1886l159 -159l159 159q28 28 50 34q32 6 54 -17q24 -24 18 -56q-4 -21 -33 -50l-192 -190q-28 -28 -56 -28t-56 28l-192 190
q-27 27 -32 50q-7 33 17 56q22 23 54 17q22 -6 50 -34z" />
    <glyph glyph-name="dcaron" unicode="&#x10f;" horiz-adv-x="1121" 
d="M131 504q0 303 125 428q41 41 105.5 64.5t140.5 23.5q90 0 157.5 -27.5t126.5 -101.5v475q0 46 14 69q19 31 61 31q43 0 62 -31q13 -21 13 -69v-1274q0 -47 -13 -68q-20 -32 -62 -32q-41 0 -61 32q-14 23 -14 68v29q-60 -76 -126.5 -104.5t-157.5 -28.5
q-76 0 -140.5 23.5t-105.5 64.5q-125 125 -125 428zM281 504q0 -66 5 -116.5t21 -103t43 -86.5t73.5 -55.5t110.5 -21.5t110.5 21.5t73.5 55.5t42.5 86.5t20.5 103t5 116.5t-5 116.5t-20.5 103t-42.5 86.5t-73.5 55.5t-110.5 21.5t-110.5 -21.5t-73.5 -55.5t-43 -86.5
t-21 -103t-5 -116.5zM1267 1394l-59 -174q-12 -38 -27 -53q-15 -17 -43 -17q-24 0 -42 12.5t-24 32.5q-7 23 7 68l59 174q12 37 27 52q15 17 43 17q24 0 42 -12.5t24 -32.5q7 -22 -7 -67z" />
    <glyph glyph-name="Dcroat" unicode="&#x110;" horiz-adv-x="1411" 
d="M335 0q-52 0 -74 22q-21 21 -21 73v577h-88q-45 0 -62 11q-27 17 -27 52t27 52q19 12 62 12h88v564q0 53 21 74t74 21h406q124 0 217.5 -37t167.5 -116q31 -34 54 -73.5t37 -90t22 -91t11.5 -105.5t4 -103.5t0.5 -112.5t-0.5 -112.5t-4 -103t-11.5 -105.5t-22 -91
t-37 -89.5t-54 -73.5q-144 -154 -385 -154h-406zM715 1319h-318v-520h256q43 0 62 -12q26 -17 26 -52t-26 -52q-17 -11 -62 -11h-256v-533h318q190 0 287 108q33 36 53.5 86t29 120t11 126.5t2.5 149.5t-2.5 149.5t-11 126.5t-29 120t-53.5 86q-97 108 -287 108z" />
    <glyph glyph-name="dcroat" unicode="&#x111;" horiz-adv-x="1121" 
d="M131 504q0 305 125 428q41 41 105.5 64.5t140.5 23.5q90 0 157.5 -27.5t126.5 -101.5v275h-189q-37 0 -54 11q-25 15 -25 47t25 47q15 10 54 10h189v85q0 46 14 69q19 31 61 31q43 0 62 -31q13 -21 13 -69v-85h55q40 0 55 -10q24 -14 24 -47t-24 -47q-16 -11 -55 -11h-55
v-1074q0 -47 -13 -68q-20 -32 -62 -32q-41 0 -61 32q-14 23 -14 68v29q-60 -76 -126.5 -104.5t-157.5 -28.5q-76 0 -140.5 23.5t-105.5 64.5q-125 125 -125 428zM281 504q0 -66 5 -116.5t20.5 -103t42.5 -86.5t73 -55.5t110 -21.5t111 21.5t74 55.5t43 86.5t21 103t5 116.5
t-5 116.5t-21 103t-43 86.5t-74 55.5t-111 21.5t-110 -21.5t-73 -55.5t-42.5 -86.5t-20.5 -103t-5 -116.5z" />
    <glyph glyph-name="Emacron" unicode="&#x112;" horiz-adv-x="1228" 
d="M306 1458h721q48 0 68 -12q29 -19 29 -57q0 -39 -29 -58q-20 -12 -68 -12h-658v-514h546q48 0 68 -12q30 -20 30 -58q0 -37 -30 -57q-20 -12 -68 -12h-546v-527h658q48 0 68 -12q29 -19 29 -57q0 -39 -29 -58q-20 -12 -68 -12h-721q-52 0 -74 22q-21 21 -21 73v1268
q0 53 21 74t74 21zM864 1626h-444q-41 0 -60 11q-26 17 -26 52q0 34 26 51q19 11 60 11h444q41 0 60 -11q26 -17 26 -51q0 -35 -26 -52q-19 -11 -60 -11z" />
    <glyph glyph-name="emacron" unicode="&#x113;" horiz-adv-x="1083" 
d="M872 466h-594q0 -166 77 -257.5t222 -91.5q131 0 216 72q25 21 38.5 28.5t30.5 7.5q24 0 44 -19.5t20 -44.5q0 -49 -105 -115q-97 -58 -251 -58q-207 0 -324 128.5t-117 387.5q0 247 111.5 381.5t304.5 134.5q190 0 300.5 -127t112.5 -340q0 -48 -20 -68q-19 -19 -66 -19
zM278 579h534q-4 96 -32 163q-29 70 -91 110.5t-144 40.5t-145 -41t-91 -110q-27 -64 -31 -163zM767 1257h-444q-39 0 -60 12q-26 17 -26 51t26 51q19 11 60 11h444q40 0 59 -11q27 -17 27 -51t-27 -51q-21 -12 -59 -12z" />
    <glyph glyph-name="Ebreve" unicode="&#x114;" horiz-adv-x="1228" 
d="M306 1458h721q48 0 68 -12q29 -19 29 -57q0 -39 -29 -58q-20 -12 -68 -12h-658v-514h546q48 0 68 -12q30 -20 30 -58q0 -37 -30 -57q-20 -12 -68 -12h-546v-527h658q48 0 68 -12q29 -19 29 -57q0 -39 -29 -58q-20 -12 -68 -12h-721q-52 0 -74 22q-21 21 -21 73v1268
q0 53 21 74t74 21zM642 1590q-138 0 -250 109q-32 30 -34 56q-3 24 17 46t46 20q21 -2 48 -27q87 -82 173 -82t173 82q27 25 48 27q26 2 46 -20t17 -46q-2 -26 -34 -56q-112 -109 -250 -109z" />
    <glyph glyph-name="ebreve" unicode="&#x115;" horiz-adv-x="1083" 
d="M872 466h-594q0 -166 77 -257.5t222 -91.5q131 0 216 72q25 21 38.5 28.5t30.5 7.5q24 0 44 -19.5t20 -44.5q0 -49 -105 -115q-97 -58 -251 -58q-207 0 -324 128.5t-117 387.5q0 247 111.5 381.5t304.5 134.5q190 0 300.5 -127t112.5 -340q0 -48 -20 -68q-19 -19 -66 -19
zM278 579h534q-4 96 -32 163q-29 70 -91 110.5t-144 40.5t-145 -41t-91 -110q-27 -64 -31 -163zM545 1208q-138 0 -250 109q-32 30 -34 56q-3 24 17 46t46 20q21 -2 48 -27q87 -82 173 -82t173 82q27 25 48 27q26 2 46 -20q19 -21 16 -46q-2 -27 -33 -56
q-112 -109 -250 -109z" />
    <glyph glyph-name="Edotaccent" unicode="&#x116;" horiz-adv-x="1228" 
d="M306 1458h721q48 0 68 -12q29 -19 29 -57q0 -39 -29 -58q-20 -12 -68 -12h-658v-514h546q48 0 68 -12q30 -20 30 -58q0 -37 -30 -57q-20 -12 -68 -12h-546v-527h658q48 0 68 -12q29 -19 29 -57q0 -39 -29 -58q-20 -12 -68 -12h-721q-52 0 -74 22q-21 21 -21 73v1268
q0 53 21 74t74 21zM550 1717q0 38 27 65t65 27t65 -27t27 -65t-27 -65t-65 -27t-65 27t-27 65z" />
    <glyph glyph-name="edotaccent" unicode="&#x117;" horiz-adv-x="1083" 
d="M872 466h-594q0 -166 77 -257.5t222 -91.5q131 0 216 72q25 21 38.5 28.5t30.5 7.5q24 0 44 -19.5t20 -44.5q0 -49 -105 -115q-97 -58 -251 -58q-207 0 -324 128.5t-117 387.5q0 247 111.5 381.5t304.5 134.5q190 0 300.5 -127t112.5 -340q0 -48 -20 -68q-19 -19 -66 -19
zM278 579h534q-4 96 -32 163q-29 70 -91 110.5t-144 40.5t-145 -41t-91 -110q-27 -64 -31 -163zM453 1335q0 38 27 65t65 27t65 -27t27 -65t-27 -65t-65 -27t-65 27t-27 65z" />
    <glyph glyph-name="Eogonek" unicode="&#x118;" horiz-adv-x="1228" 
d="M306 1458h721q48 0 68 -12q29 -19 29 -57q0 -39 -29 -58q-20 -12 -68 -12h-658v-514h546q48 0 68 -12q30 -20 30 -58q0 -37 -30 -57q-20 -12 -68 -12h-546v-527h658q48 0 68 -12q29 -19 29 -57q0 -39 -29 -58q-20 -12 -68 -12h-721q-52 0 -74 22q-21 21 -21 73v1268
q0 53 21 74t74 21zM855 -346l104 167q19 30 34 42q17 12 37 12t37 -11q36 -21 34 -59q-1 -20 -25 -58l-104 -167q-19 -30 -34 -42q-16 -12 -37 -12t-37 11q-36 21 -34 59q1 20 25 58z" />
    <glyph glyph-name="eogonek" unicode="&#x119;" horiz-adv-x="1083" 
d="M872 466h-594q0 -166 77 -257.5t222 -91.5q131 0 216 72q25 21 38.5 28.5t30.5 7.5q24 0 44 -19.5t20 -44.5q0 -49 -105 -115q-97 -58 -251 -58q-207 0 -324 128.5t-117 387.5q0 247 111.5 381.5t304.5 134.5q190 0 300.5 -127t112.5 -340q0 -48 -20 -68q-19 -19 -66 -19
zM278 579h534q-4 96 -32 163q-29 70 -91 110.5t-144 40.5t-145 -41t-91 -110q-27 -64 -31 -163zM508 -346l104 167q19 30 34 42q16 12 37 12t37 -11q36 -21 34 -59q-1 -20 -25 -58l-104 -167q-19 -30 -34 -42q-17 -12 -37 -12t-37 11q-36 21 -34 59q1 20 25 58z" />
    <glyph glyph-name="Ecaron" unicode="&#x11a;" horiz-adv-x="1228" 
d="M306 1458h721q48 0 68 -12q29 -19 29 -57q0 -39 -29 -58q-20 -12 -68 -12h-658v-514h546q48 0 68 -12q30 -20 30 -58q0 -37 -30 -57q-20 -12 -68 -12h-546v-527h658q48 0 68 -12q29 -19 29 -57q0 -39 -29 -58q-20 -12 -68 -12h-721q-52 0 -74 22q-21 21 -21 73v1268
q0 53 21 74t74 21zM483 1886l159 -159l159 159q28 28 50 34q32 6 54 -17q24 -24 18 -56q-4 -21 -33 -50l-192 -190q-28 -28 -56 -28t-56 28l-192 190q-29 29 -33 50q-6 32 18 56q22 23 54 17q22 -6 50 -34z" />
    <glyph glyph-name="ecaron" unicode="&#x11b;" horiz-adv-x="1083" 
d="M872 466h-594q0 -166 77 -257.5t222 -91.5q131 0 216 72q25 21 38.5 28.5t30.5 7.5q24 0 44 -19.5t20 -44.5q0 -49 -105 -115q-97 -58 -251 -58q-207 0 -324 128.5t-117 387.5q0 247 111.5 381.5t304.5 134.5q190 0 300.5 -127t112.5 -340q0 -48 -20 -68q-19 -19 -66 -19
zM278 579h534q-4 96 -32 163q-29 70 -91 110.5t-144 40.5t-145 -41t-91 -110q-27 -64 -31 -163zM386 1503l159 -158l158 158q28 28 51 34q32 6 54 -17q24 -24 17 -56q-5 -22 -32 -50l-192 -190q-28 -28 -56 -28q-29 0 -57 28l-191 190q-29 29 -33 50q-6 32 18 56
q22 23 54 17q22 -6 50 -34z" />
    <glyph glyph-name="Gcircumflex" unicode="&#x11c;" horiz-adv-x="1331" 
d="M313 729q0 -236 18.5 -333.5t84.5 -164.5q102 -104 252 -104q152 0 253 101q60 61 80 143.5t20 244.5h-269q-46 0 -68 13q-30 20 -30 57t30 57q22 13 68 13h326q52 0 74 -22t22 -74v-26q0 -207 -28.5 -311t-116.5 -191q-144 -144 -361 -144q-219 0 -364 143
q-52 52 -81.5 102t-44.5 126.5t-18.5 151.5t-3.5 218q0 114 2 179.5t10 134t24.5 112.5t43 87t68.5 85q141 143 363 143q247 0 391 -175q43 -52 68 -112.5t25 -99.5q0 -36 -21 -57q-20 -20 -52 -20q-30 0 -48 16q-22 20 -37 65q-39 117 -123 180.5t-204 63.5
q-149 0 -250 -104q-67 -68 -85 -165.5t-18 -332.5zM668 1776l-159 -159q-28 -28 -50 -34q-31 -6 -55 18q-25 25 -17 55q6 23 33 50l191 190q28 28 57 28q28 0 56 -28l191 -190q27 -27 33 -50q8 -30 -17 -55q-24 -24 -54 -18q-23 6 -51 34z" />
    <glyph glyph-name="gcircumflex" unicode="&#x11d;" horiz-adv-x="1119" 
d="M505 -333q139 0 209 85.5t70 222.5v161q-57 -74 -126 -104t-158 -30q-75 0 -140 24.5t-106 65.5q-123 123 -123 420t123 420q40 40 106 64t142 24q91 0 157.5 -28t124.5 -103v26q0 46 14 69q20 32 61 32q42 0 62 -32q13 -21 13 -69v-945q0 -191 -114.5 -311.5
t-311.5 -120.5q-133 0 -224 49q-39 21 -73 51t-34 60t20 49t43 19q26 0 74 -38q76 -61 191 -61zM782 512q0 63 -5 111.5t-20.5 100t-42 85.5t-73 56t-109.5 22t-110 -22t-73.5 -56t-42 -85.5t-20.5 -100.5t-5 -112t5 -111.5t20.5 -100t42 -85.5t73.5 -55.5t110 -21.5
t109.5 22t73 55.5t42 85.5t20.5 100.5t5 111.5zM532 1393l-158 -159q-28 -28 -50 -34q-31 -6 -55 18q-25 25 -17 55q6 23 33 50l191 190q28 28 56 28q29 0 57 -28l191 -190q27 -27 33 -50q8 -30 -17 -55q-24 -24 -55 -18q-22 6 -50 34z" />
    <glyph glyph-name="Gbreve" unicode="&#x11e;" horiz-adv-x="1331" 
d="M313 729q0 -236 18.5 -333.5t84.5 -164.5q102 -104 252 -104q152 0 253 101q60 61 80 143.5t20 244.5h-269q-46 0 -68 13q-30 20 -30 57t30 57q22 13 68 13h326q52 0 74 -22t22 -74v-26q0 -207 -28.5 -311t-116.5 -191q-144 -144 -361 -144q-219 0 -364 143
q-52 52 -81.5 102t-44.5 126.5t-18.5 151.5t-3.5 218q0 114 2 179.5t10 134t24.5 112.5t43 87t68.5 85q141 143 363 143q247 0 391 -175q43 -52 68 -112.5t25 -99.5q0 -36 -21 -57q-20 -20 -52 -20q-30 0 -48 16q-22 20 -37 65q-39 117 -123 180.5t-204 63.5
q-149 0 -250 -104q-67 -68 -85 -165.5t-18 -332.5zM668 1590q-138 0 -250 109q-32 30 -34 56q-3 25 16 46q20 22 46 20q22 -2 49 -27q87 -82 173 -82t173 82q27 25 48 27q26 2 46 -20q19 -21 16 -46q-2 -27 -33 -56q-112 -109 -250 -109z" />
    <glyph glyph-name="gbreve" unicode="&#x11f;" horiz-adv-x="1119" 
d="M505 -333q139 0 209 85.5t70 222.5v161q-57 -74 -126 -104t-158 -30q-75 0 -140 24.5t-106 65.5q-123 123 -123 420t123 420q40 40 106 64t142 24q91 0 157.5 -28t124.5 -103v26q0 46 14 69q20 32 61 32q42 0 62 -32q13 -21 13 -69v-945q0 -191 -114.5 -311.5
t-311.5 -120.5q-133 0 -224 49q-39 21 -73 51t-34 60t20 49t43 19q26 0 74 -38q76 -61 191 -61zM782 512q0 63 -5 111.5t-20.5 100t-42 85.5t-73 56t-109.5 22t-110 -22t-73.5 -56t-42 -85.5t-20.5 -100.5t-5 -112t5 -111.5t20.5 -100t42 -85.5t73.5 -55.5t110 -21.5
t109.5 22t73 55.5t42 85.5t20.5 100.5t5 111.5zM532 1208q-137 0 -249 109q-32 30 -34 56q-3 25 16 46q20 22 46 20q21 -2 48 -27q87 -82 173 -82q87 0 174 82q27 25 48 27q26 2 46 -20q19 -21 16 -46q-2 -26 -34 -56q-112 -109 -250 -109z" />
    <glyph glyph-name="Gdotaccent" unicode="&#x120;" horiz-adv-x="1331" 
d="M313 729q0 -236 18.5 -333.5t84.5 -164.5q102 -104 252 -104q152 0 253 101q60 61 80 143.5t20 244.5h-269q-46 0 -68 13q-30 20 -30 57t30 57q22 13 68 13h326q52 0 74 -22t22 -74v-26q0 -207 -28.5 -311t-116.5 -191q-144 -144 -361 -144q-219 0 -364 143
q-52 52 -81.5 102t-44.5 126.5t-18.5 151.5t-3.5 218q0 114 2 179.5t10 134t24.5 112.5t43 87t68.5 85q141 143 363 143q247 0 391 -175q43 -52 68 -112.5t25 -99.5q0 -36 -21 -57q-20 -20 -52 -20q-30 0 -48 16q-22 20 -37 65q-39 117 -123 180.5t-204 63.5
q-149 0 -250 -104q-67 -68 -85 -165.5t-18 -332.5zM575 1717q0 38 27.5 65t65.5 27t65 -27t27 -65t-27 -65t-65 -27t-65.5 27t-27.5 65z" />
    <glyph glyph-name="gdotaccent" unicode="&#x121;" horiz-adv-x="1119" 
d="M505 -333q139 0 209 85.5t70 222.5v161q-57 -74 -126 -104t-158 -30q-75 0 -140 24.5t-106 65.5q-123 123 -123 420t123 420q40 40 106 64t142 24q91 0 157.5 -28t124.5 -103v26q0 46 14 69q20 32 61 32q42 0 62 -32q13 -21 13 -69v-945q0 -191 -114.5 -311.5
t-311.5 -120.5q-133 0 -224 49q-39 21 -73 51t-34 60t20 49t43 19q26 0 74 -38q76 -61 191 -61zM782 512q0 63 -5 111.5t-20.5 100t-42 85.5t-73 56t-109.5 22t-110 -22t-73.5 -56t-42 -85.5t-20.5 -100.5t-5 -112t5 -111.5t20.5 -100t42 -85.5t73.5 -55.5t110 -21.5
t109.5 22t73 55.5t42 85.5t20.5 100.5t5 111.5zM440 1335q0 38 27 65t65 27t65.5 -27t27.5 -65t-27.5 -65t-65.5 -27t-65 27t-27 65z" />
    <glyph glyph-name="uni0122" unicode="&#x122;" horiz-adv-x="1331" 
d="M313 729q0 -236 18.5 -333.5t84.5 -164.5q102 -104 252 -104q152 0 253 101q60 61 80 143.5t20 244.5h-269q-46 0 -68 13q-30 20 -30 57t30 57q22 13 68 13h326q52 0 74 -22t22 -74v-26q0 -207 -28.5 -311t-116.5 -191q-144 -144 -361 -144q-219 0 -364 143
q-52 52 -81.5 102t-44.5 126.5t-18.5 151.5t-3.5 218q0 114 2 179.5t10 134t24.5 112.5t43 87t68.5 85q141 143 363 143q247 0 391 -175q43 -52 68 -112.5t25 -99.5q0 -36 -21 -57q-20 -20 -52 -20q-30 0 -48 16q-22 20 -37 65q-39 117 -123 180.5t-204 63.5
q-149 0 -250 -104q-67 -68 -85 -165.5t-18 -332.5zM503 -346l104 167q19 30 34 42q17 12 37 12t37 -11q36 -21 34 -59q-1 -20 -25 -58l-104 -167q-19 -30 -34 -42q-16 -12 -37 -12t-37 11q-36 21 -34 59q1 20 25 58z" />
    <glyph glyph-name="uni0123" unicode="&#x123;" horiz-adv-x="1119" 
d="M505 -333q139 0 209 85.5t70 222.5v161q-57 -74 -126 -104t-158 -30q-75 0 -140 24.5t-106 65.5q-123 123 -123 420t123 420q40 40 106 64t142 24q91 0 157.5 -28t124.5 -103v26q0 46 14 69q20 32 61 32q42 0 62 -32q13 -21 13 -69v-945q0 -191 -114.5 -311.5
t-311.5 -120.5q-133 0 -224 49q-39 21 -73 51t-34 60t20 49t43 19q26 0 74 -38q76 -61 191 -61zM782 512q0 63 -5 111.5t-20.5 100t-42 85.5t-73 56t-109.5 22t-110 -22t-73.5 -56t-42 -85.5t-20.5 -100.5t-5 -112t5 -111.5t20.5 -100t42 -85.5t73.5 -55.5t110 -21.5
t109.5 22t73 55.5t42 85.5t20.5 100.5t5 111.5zM494 1334l104 167q19 30 34 42q16 12 37 12t37 -11q35 -20 33 -58q-1 -23 -24 -59l-105 -166q-19 -32 -33 -42q-18 -13 -37 -13t-37 12q-36 21 -34 58q1 20 25 58z" />
    <glyph glyph-name="Hcircumflex" unicode="&#x124;" horiz-adv-x="1425" 
d="M1214 98q0 -51 -14 -73q-21 -33 -64 -33q-44 0 -65 33q-14 22 -14 73v568h-688v-568q0 -49 -15 -73q-21 -33 -64 -33q-44 0 -65 33q-14 22 -14 73v1262q0 52 14 74q20 32 65 32q44 0 64 -32q15 -24 15 -74v-555h688v555q0 52 14 74q20 32 65 32q44 0 64 -32
q14 -22 14 -74v-1262zM714 1776l-159 -159q-28 -28 -50 -34q-30 -6 -54 18q-25 25 -18 55q6 23 33 50l191 190q28 28 57 28q28 0 56 -28l192 -190q25 -25 32 -50q8 -30 -17 -55q-24 -24 -54 -18q-23 6 -51 34z" />
    <glyph glyph-name="hcircumflex" unicode="&#x125;" horiz-adv-x="1156" 
d="M335 92q0 -47 -13 -68q-20 -32 -62 -32q-41 0 -61 32q-14 23 -14 68v1274q0 46 14 69q19 31 61 31q43 0 62 -31q13 -21 13 -69v-469q111 123 282 123t268 -100.5t97 -272.5v-555q0 -47 -13 -68q-20 -32 -62 -32q-41 0 -61 32q-13 21 -13 68v531q0 131 -64 197.5
t-182 66.5t-185 -67t-67 -197v-531zM265 1774l-159 -159q-28 -28 -50 -34q-31 -6 -54 17q-25 25 -17 56q7 25 32 50l192 190q28 28 56 28q29 0 57 -28l191 -190q27 -27 33 -50q8 -30 -18 -56q-23 -23 -54 -17q-22 6 -50 34z" />
    <glyph glyph-name="Hbar" unicode="&#x126;" horiz-adv-x="1482" 
d="M1243 98q0 -51 -14 -73q-21 -33 -65 -33q-43 0 -64 33q-15 24 -15 73v568h-688v-568q0 -51 -14 -73q-21 -33 -65 -33q-43 0 -64 33q-14 22 -14 73v953h-88q-45 0 -62 11q-27 17 -27 52t27 52q19 12 62 12h88v182q0 52 14 74q20 32 64 32q45 0 65 -32q14 -22 14 -74v-182
h688v182q0 50 15 74q20 32 64 32q45 0 65 -32q14 -22 14 -74v-182h88q43 0 62 -12q26 -17 26 -52t-26 -52q-17 -11 -62 -11h-88v-953zM397 805h688v246h-688v-246z" />
    <glyph glyph-name="hbar" unicode="&#x127;" horiz-adv-x="1156" 
d="M335 92q0 -47 -13 -68q-20 -32 -62 -32q-41 0 -61 32q-14 23 -14 68v1074h-56q-37 0 -54 11q-25 15 -25 47t25 47q15 10 54 10h56v85q0 46 14 69q19 31 61 31q43 0 62 -31q13 -21 13 -69v-85h190q40 0 55 -10q24 -14 24 -47t-24 -47q-16 -11 -55 -11h-190v-269
q111 123 282 123t268 -100.5t97 -272.5v-555q0 -47 -13 -68q-20 -32 -62 -32q-41 0 -61 32q-13 21 -13 68v531q0 131 -64 197.5t-182 66.5t-185 -67t-67 -197v-531z" />
    <glyph glyph-name="Itilde" unicode="&#x128;" horiz-adv-x="579" 
d="M369 1360v-1262q0 -49 -15 -73q-21 -33 -64 -33q-44 0 -65 33q-14 22 -14 73v1262q0 52 14 74q20 32 65 32q44 0 64 -32q15 -24 15 -74zM272 1659q-70 42 -113 42q-25 0 -43.5 -6.5t-46.5 -30.5q-32 -27 -53 -27q-22 0 -38 16q-15 15 -15 40q0 30 37 62q75 64 157 64
q42 0 72.5 -10.5t73.5 -36.5q70 -42 114 -42q17 0 28 1.5t27 10t35 24.5q32 27 52 27q23 0 38 -15t15 -40q0 -31 -37 -63q-45 -39 -81 -51t-75 -12q-42 0 -73 10.5t-74 36.5z" />
    <glyph glyph-name="itilde" unicode="&#x129;" horiz-adv-x="530" 
d="M340 915v-823q0 -47 -13 -68q-20 -32 -62 -32q-41 0 -61 32q-14 23 -14 68v823q0 46 14 69q20 32 61 32q42 0 62 -32q13 -21 13 -69zM250 1288q-70 42 -114 42q-25 0 -43.5 -6.5t-46.5 -30.5q-31 -26 -52 -26q-23 0 -38 15t-15 40q0 31 36 62q75 64 157 64q42 0 73 -10.5
t74 -36.5q70 -42 113 -42q25 0 43.5 6.5t46.5 30.5q31 26 53 26t37 -15q16 -16 16 -40q0 -30 -37 -62q-75 -64 -157 -64q-42 0 -72.5 10.5t-73.5 36.5z" />
    <glyph glyph-name="Imacron" unicode="&#x12a;" horiz-adv-x="579" 
d="M369 1360v-1262q0 -49 -15 -73q-21 -33 -64 -33q-44 0 -65 33q-14 22 -14 73v1262q0 52 14 74q20 32 65 32q44 0 64 -32q15 -24 15 -74zM512 1626h-444q-41 0 -60 11q-26 17 -26 52q0 34 26 51q19 11 60 11h444q40 0 59 -11q27 -17 27 -51q0 -35 -27 -52q-19 -11 -59 -11
z" />
    <glyph glyph-name="imacron" unicode="&#x12b;" horiz-adv-x="530" 
d="M340 915v-823q0 -47 -13 -68q-20 -32 -62 -32q-41 0 -61 32q-14 23 -14 68v823q0 46 14 69q20 32 61 32q42 0 62 -32q13 -21 13 -69zM487 1257h-444q-38 0 -59 12q-27 17 -27 51t27 51q19 11 59 11h444q41 0 60 -11q26 -17 26 -51t-26 -51q-21 -12 -60 -12z" />
    <glyph glyph-name="Ibreve" unicode="&#x12c;" horiz-adv-x="579" 
d="M369 1360v-1262q0 -49 -15 -73q-21 -33 -64 -33q-44 0 -65 33q-14 22 -14 73v1262q0 52 14 74q20 32 65 32q44 0 64 -32q15 -24 15 -74zM290 1590q-138 0 -250 109q-32 30 -34 56q-3 24 17 46t46 20q21 -2 48 -27q87 -82 173 -82t173 82q27 25 48 27q26 2 46 -20
q19 -21 16 -46q-2 -27 -33 -56q-112 -109 -250 -109z" />
    <glyph glyph-name="ibreve" unicode="&#x12d;" horiz-adv-x="530" 
d="M340 915v-823q0 -47 -13 -68q-20 -32 -62 -32q-41 0 -61 32q-14 23 -14 68v823q0 46 14 69q20 32 61 32q42 0 62 -32q13 -21 13 -69zM265 1208q-138 0 -250 109q-31 29 -33 56q-3 25 16 46q20 22 46 20q21 -2 48 -27q87 -82 173 -82t173 82q27 25 48 27q26 2 46 -20
t17 -46q-2 -26 -34 -56q-112 -109 -250 -109z" />
    <glyph glyph-name="Iogonek" unicode="&#x12e;" horiz-adv-x="579" 
d="M369 1360v-1262q0 -49 -15 -73q-21 -33 -64 -33q-44 0 -65 33q-14 22 -14 73v1262q0 52 14 74q20 32 65 32q44 0 64 -32q15 -24 15 -74zM105 -346l105 167q19 30 34 42q17 12 37 12q19 0 36 -11q36 -21 34 -59q-1 -22 -24 -58l-105 -167q-19 -30 -34 -42q-16 -12 -36 -12
t-37 11q-36 21 -34 59q1 22 24 58z" />
    <glyph glyph-name="iogonek" unicode="&#x12f;" horiz-adv-x="530" 
d="M340 915v-823q0 -47 -13 -68q-20 -32 -62 -32q-41 0 -61 32q-14 23 -14 68v823q0 46 14 69q20 32 61 32q42 0 62 -32q13 -21 13 -69zM164 1385q0 42 29.5 72t71.5 30t72 -30t30 -72t-30 -71.5t-72 -29.5t-71.5 29.5t-29.5 71.5zM78 -346l104 167q19 30 34 42q17 12 37 12
q21 0 37 -11q36 -21 34 -59q-1 -20 -25 -58l-104 -167q-19 -30 -34 -42q-16 -12 -37 -12q-20 0 -37 11q-36 21 -34 59q1 20 25 58z" />
    <glyph glyph-name="Idotaccent" unicode="&#x130;" horiz-adv-x="579" 
d="M369 1360v-1262q0 -49 -15 -73q-21 -33 -64 -33q-44 0 -65 33q-14 22 -14 73v1262q0 52 14 74q20 32 65 32q44 0 64 -32q15 -24 15 -74zM198 1717q0 38 27 65t65 27t65 -27t27 -65t-27 -65t-65 -27t-65 27t-27 65z" />
    <glyph glyph-name="dotlessi" unicode="&#x131;" horiz-adv-x="530" 
d="M340 915v-823q0 -47 -13 -68q-20 -32 -62 -32q-41 0 -61 32q-14 23 -14 68v823q0 46 14 69q20 32 61 32q42 0 62 -32q13 -21 13 -69z" />
    <glyph glyph-name="IJ" unicode="&#x132;" horiz-adv-x="1604" 
d="M957 127q143 0 221 87.5t78 248.5v897q0 50 15 74q20 32 64 32q45 0 65 -32q14 -22 14 -74v-918q0 -208 -127 -331t-330 -123q-161 0 -277 85q-41 29 -41 67q0 30 18 50q21 22 49 22q26 0 70 -30q77 -55 181 -55zM369 1360v-1262q0 -49 -15 -73q-21 -33 -64 -33
q-44 0 -65 33q-14 22 -14 73v1262q0 52 14 74q20 32 65 32q44 0 64 -32q15 -24 15 -74z" />
    <glyph glyph-name="ij" unicode="&#x133;" horiz-adv-x="1047" 
d="M681 1385q0 42 29.5 72t71.5 30t72 -30t30 -72t-30 -71.5t-72 -29.5t-71.5 29.5t-29.5 71.5zM708 -176v1091q0 48 13 69q20 32 61 32q42 0 62 -32q13 -21 13 -69v-1096q0 -118 -66.5 -194.5t-189.5 -76.5h-27q-45 0 -66 13q-28 18 -28 52t28 52q20 12 66 12
q67 0 100.5 38.5t33.5 108.5zM340 915v-823q0 -47 -13 -68q-20 -32 -62 -32q-41 0 -61 32q-14 23 -14 68v823q0 46 14 69q20 32 61 32q42 0 62 -32q13 -21 13 -69zM164 1385q0 42 29.5 72t71.5 30t72 -30t30 -72t-30 -71.5t-72 -29.5t-71.5 29.5t-29.5 71.5z" />
    <glyph glyph-name="Jcircumflex" unicode="&#x134;" horiz-adv-x="1016" 
d="M371 127q143 0 221 87.5t78 248.5v897q0 52 14 74q20 32 65 32q44 0 64 -32q14 -22 14 -74v-918q0 -208 -126.5 -331t-329.5 -123q-162 0 -278 85q-41 29 -41 67q0 29 19 50q21 22 48 22t70 -30q77 -55 182 -55zM748 1776l-159 -159q-28 -28 -50 -34q-31 -6 -55 18
q-25 25 -17 55q6 23 33 50l191 190q28 28 57 28q28 0 56 -28l191 -190q27 -27 33 -50q8 -30 -17 -55q-24 -24 -55 -18q-22 6 -50 34z" />
    <glyph glyph-name="jcircumflex" unicode="&#x135;" horiz-adv-x="530" 
d="M190 -176v1091q0 46 14 69q20 32 61 32q42 0 62 -32q13 -21 13 -69v-1096q0 -118 -66.5 -194.5t-189.5 -76.5h-27q-45 0 -66 13q-28 18 -28 52t28 52q19 12 66 12q133 0 133 147zM265 1393l-159 -159q-28 -28 -50 -34q-30 -6 -54 18q-25 25 -17 55q7 25 32 50l192 190
q28 28 56 28q29 0 57 -28l191 -190q27 -27 33 -50q7 -30 -18 -55q-24 -24 -54 -18q-22 6 -50 34z" />
    <glyph glyph-name="uni0136" unicode="&#x136;" horiz-adv-x="1330" 
d="M369 1360v-726l646 784q39 48 72 48q29 0 51 -18q26 -22 26 -56q0 -27 -35 -69l-346 -421l438 -768q23 -42 23 -71q0 -38 -40 -60q-19 -11 -40 -11q-27 0 -45 16.5t-35 47.5l-410 728l-305 -366v-320q0 -49 -15 -73q-21 -33 -64 -33q-44 0 -65 33q-14 22 -14 73v1262
q0 52 14 74q20 32 65 32q44 0 64 -32q15 -24 15 -74zM538 -346l104 167q19 30 34 42q16 12 37 12t37 -11q35 -20 33 -59q-1 -22 -24 -58l-105 -167q-19 -32 -33 -42q-17 -12 -37 -12t-37 11q-36 21 -34 59q1 20 25 58z" />
    <glyph glyph-name="uni0137" unicode="&#x137;" horiz-adv-x="1052" 
d="M972 62q0 -39 -35 -59q-18 -11 -39 -11q-23 0 -39 13t-36 44l-293 464l-195 -222v-199q0 -47 -13 -68q-20 -32 -62 -32q-41 0 -61 32q-14 23 -14 68v1274q0 46 14 69q19 31 61 31q43 0 62 -31q13 -21 13 -69v-882l431 492q22 25 37 34.5t34 9.5q24 0 43 -16
q24 -21 24 -50q0 -27 -36 -68l-234 -268l312 -492q26 -43 26 -64zM408 -346l104 167q19 30 34 42q16 12 37 12t37 -11q35 -20 33 -59q-1 -22 -24 -58l-105 -167q-19 -30 -34 -42q-16 -12 -36 -12t-37 11q-36 21 -34 59q1 20 25 58z" />
    <glyph glyph-name="kgreenlandic" unicode="&#x138;" horiz-adv-x="1052" 
d="M972 62q0 -39 -35 -59q-18 -11 -39 -11q-23 0 -39 13t-36 44l-293 462l-195 -226v-193q0 -47 -13 -68q-20 -32 -62 -32q-41 0 -61 32q-14 23 -14 68v823q0 46 14 69q20 32 61 32q42 0 62 -32q13 -21 13 -69v-431l428 488q22 25 37 34.5t34 9.5q23 0 43 -17q24 -21 24 -49
q0 -27 -36 -68l-231 -264l312 -492q26 -43 26 -64z" />
    <glyph glyph-name="Lacute" unicode="&#x139;" horiz-adv-x="1171" 
d="M306 0q-52 0 -74 22q-21 21 -21 73v1265q0 52 14 74q20 32 65 32q44 0 64 -32q15 -24 15 -74v-1221h653q48 0 68 -12q29 -19 29 -57q0 -39 -29 -58q-20 -12 -68 -12h-716zM250 1710l104 167q19 30 34 42q17 12 37 12q21 0 37 -11q36 -21 34 -58q-1 -21 -25 -59l-104 -167
q-19 -30 -34 -42q-16 -12 -37 -12q-20 0 -37 11q-36 21 -34 59q1 20 25 58z" />
    <glyph glyph-name="lacute" unicode="&#x13a;" horiz-adv-x="604" 
d="M330 1366v-1091q0 -146 133 -146q47 0 66 -12q28 -18 28 -52q0 -35 -28 -53q-19 -12 -66 -12h-27q-123 0 -189.5 76t-66.5 194v1096q0 46 14 69q19 31 61 31t61 -31q14 -23 14 -69zM227 1715l105 167q19 30 34 42q17 12 36 12q20 0 37 -11q36 -21 34 -58q-1 -23 -24 -59
l-105 -167q-19 -30 -34 -42q-16 -12 -37 -12q-19 0 -36 11q-36 21 -34 59q1 22 24 58z" />
    <glyph glyph-name="uni013B" unicode="&#x13b;" horiz-adv-x="1171" 
d="M306 0q-52 0 -74 22q-21 21 -21 73v1265q0 52 14 74q20 32 65 32q44 0 64 -32q15 -24 15 -74v-1221h653q48 0 68 -12q29 -19 29 -57q0 -39 -29 -58q-20 -12 -68 -12h-716zM468 -346l104 167q19 30 34 42q16 12 37 12t37 -11q36 -21 34 -59q-1 -20 -25 -58l-104 -167
q-19 -30 -34 -42q-17 -12 -37 -12t-37 11q-36 21 -34 59q1 20 25 58z" />
    <glyph glyph-name="uni013C" unicode="&#x13c;" horiz-adv-x="604" 
d="M330 1366v-1091q0 -146 133 -146q47 0 66 -12q28 -18 28 -52q0 -35 -28 -53q-19 -12 -66 -12h-27q-123 0 -189.5 76t-66.5 194v1096q0 46 14 69q19 31 61 31t61 -31q14 -23 14 -69zM187 -346l105 167q19 30 34 42q17 12 36 12q20 0 37 -11q36 -21 34 -59q-1 -22 -24 -58
l-105 -167q-19 -30 -34 -42q-16 -12 -37 -12q-20 0 -36 11q-36 21 -34 59q1 22 24 58z" />
    <glyph glyph-name="Lcaron" unicode="&#x13d;" horiz-adv-x="1171" 
d="M306 0q-52 0 -74 22q-21 21 -21 73v1265q0 52 14 74q20 32 65 32q44 0 64 -32q15 -24 15 -74v-1221h653q48 0 68 -12q29 -19 29 -57q0 -39 -29 -58q-20 -12 -68 -12h-716zM808 1394l-58 -174q-12 -37 -28 -53q-15 -17 -43 -17q-24 0 -42 12.5t-24 32.5q-7 21 8 68l58 174
q11 35 28 52q15 17 43 17q24 0 41.5 -12.5t23.5 -32.5q7 -22 -7 -67z" />
    <glyph glyph-name="lcaron" unicode="&#x13e;" horiz-adv-x="604" 
d="M330 1366v-1091q0 -146 133 -146q47 0 66 -12q28 -18 28 -52q0 -35 -28 -53q-19 -12 -66 -12h-27q-123 0 -189.5 76t-66.5 194v1096q0 46 14 69q19 31 61 31t61 -31q14 -23 14 -69zM655 1394l-58 -174q-12 -37 -28 -53q-15 -17 -43 -17q-24 0 -41.5 12.5t-23.5 32.5
q-7 23 7 68l58 174q11 35 28 52q15 17 43 17q24 0 42 -12.5t24 -32.5t-8 -67z" />
    <glyph glyph-name="Ldot" unicode="&#x13f;" horiz-adv-x="1171" 
d="M306 0q-52 0 -74 22q-21 21 -21 73v1265q0 52 14 74q20 32 65 32q44 0 64 -32q15 -24 15 -74v-1221h653q48 0 68 -12q29 -19 29 -57q0 -39 -29 -58q-20 -12 -68 -12h-716zM782 735q0 38 27 65t65 27t65.5 -27t27.5 -65t-27.5 -65t-65.5 -27t-65 27t-27 65z" />
    <glyph glyph-name="ldot" unicode="&#x140;" horiz-adv-x="600" 
d="M330 1366v-1091q0 -146 133 -146q47 0 66 -12q28 -18 28 -52q0 -35 -28 -53q-19 -12 -66 -12h-27q-123 0 -189.5 76t-66.5 194v1096q0 46 14 69q19 31 61 31t61 -31q14 -23 14 -69zM461 553q0 38 27 65t65 27t65 -27t27 -65t-27 -65t-65 -27t-65 27t-27 65z" />
    <glyph glyph-name="Lslash" unicode="&#x141;" horiz-adv-x="1201" 
d="M336 0q-52 0 -74 22q-21 21 -21 73v504l-64 -32q-35 -17 -53 -17q-23 0 -41 18q-20 20 -20 48q0 22 14.5 37t43.5 29l120 59v619q0 52 14 74q20 32 64 32q45 0 65 -32q14 -22 14 -74v-540l234 118q35 17 53 17q23 0 41 -18q19 -19 19 -48q0 -22 -14 -37t-43 -29
l-290 -145v-539h654q47 0 67 -12q30 -20 30 -57q0 -38 -30 -58q-20 -12 -67 -12h-716z" />
    <glyph glyph-name="lslash" unicode="&#x142;" horiz-adv-x="645" 
d="M362 780v-505q0 -146 134 -146q46 0 66 -12q28 -18 28 -52q0 -35 -28 -53q-20 -12 -66 -12h-27q-123 0 -189.5 76t-66.5 194v436l-54 -27q-30 -15 -48 -15q-32 0 -49 31q-7 13 -7 29q0 14 11 30q9 12 42 28l105 53v531q0 48 13 69q19 31 62 31q42 0 61 -31q13 -21 13 -69
v-457l112 56q30 15 48 15q31 0 48 -32q8 -14 8 -28t-11 -30q-11 -13 -42 -29z" />
    <glyph glyph-name="Nacute" unicode="&#x143;" horiz-adv-x="1501" 
d="M1290 1360v-1265q0 -55 -24 -79t-60 -24q-27 0 -47 15t-42 47l-748 1106v-1062q0 -49 -15 -73q-21 -33 -64 -33q-44 0 -65 33q-14 22 -14 73v1265q0 54 25 79q22 24 59 24q27 0 46.5 -15t42.5 -47l749 -1106v1062q0 52 14 74q20 32 64 32q45 0 65 -32q14 -22 14 -74z
M710 1710l104 167q19 30 34 42q16 12 37 12t37 -11q35 -20 33 -58q-1 -23 -24 -59l-105 -167q-19 -32 -33 -42q-17 -12 -37 -12t-37 11q-36 21 -34 59q1 20 25 58z" />
    <glyph glyph-name="nacute" unicode="&#x144;" horiz-adv-x="1157" 
d="M983 644v-552q0 -46 -13 -68q-20 -32 -62 -32q-43 0 -61 32q-13 22 -13 68v526q0 132 -65 200.5t-182 68.5q-118 0 -185 -69.5t-67 -199.5v-526q0 -46 -13 -68q-20 -32 -62 -32q-41 0 -61 32q-14 24 -14 68v823q0 46 14 69q20 32 61 32q42 0 62 -32q13 -21 13 -69v-18
q111 123 282 123q166 0 262 -94q104 -101 104 -282zM544 1334l104 167q19 30 34 42q16 12 37 12t37 -11q36 -21 34 -58q-1 -21 -25 -59l-105 -166q-19 -32 -33 -42q-18 -13 -37 -13t-37 12q-36 21 -34 58q1 20 25 58z" />
    <glyph glyph-name="uni0145" unicode="&#x145;" horiz-adv-x="1501" 
d="M1290 1360v-1265q0 -55 -24 -79t-60 -24q-27 0 -47 15t-42 47l-748 1106v-1062q0 -49 -15 -73q-21 -33 -64 -33q-44 0 -65 33q-14 22 -14 73v1265q0 54 25 79q22 24 59 24q27 0 46.5 -15t42.5 -47l749 -1106v1062q0 52 14 74q20 32 64 32q45 0 65 -32q14 -22 14 -74z
M585 -346l104 167q19 30 34 42q17 12 37 12t37 -11q35 -20 33 -59q-1 -22 -24 -58l-105 -167q-19 -32 -33 -42q-17 -12 -37 -12q-21 0 -37 11q-36 21 -34 59q1 20 25 58z" />
    <glyph glyph-name="uni0146" unicode="&#x146;" horiz-adv-x="1157" 
d="M983 644v-552q0 -46 -13 -68q-20 -32 -62 -32q-43 0 -61 32q-13 22 -13 68v526q0 132 -65 200.5t-182 68.5q-118 0 -185 -69.5t-67 -199.5v-526q0 -46 -13 -68q-20 -32 -62 -32q-41 0 -61 32q-14 24 -14 68v823q0 46 14 69q20 32 61 32q42 0 62 -32q13 -21 13 -69v-18
q111 123 282 123q166 0 262 -94q104 -101 104 -282zM438 -346l105 167q19 30 34 42q17 12 36 12q21 0 37 -11q36 -21 34 -59q-1 -20 -25 -58l-104 -167q-19 -30 -34 -42q-16 -12 -37 -12q-20 0 -37 11q-35 20 -33 59q1 22 24 58z" />
    <glyph glyph-name="Ncaron" unicode="&#x147;" horiz-adv-x="1501" 
d="M1290 1360v-1265q0 -55 -24 -79t-60 -24q-27 0 -47 15t-42 47l-748 1106v-1062q0 -49 -15 -73q-21 -33 -64 -33q-44 0 -65 33q-14 22 -14 73v1265q0 54 25 79q22 24 59 24q27 0 46.5 -15t42.5 -47l749 -1106v1062q0 52 14 74q20 32 64 32q45 0 65 -32q14 -22 14 -74z
M591 1886l159 -159l158 159q28 28 50 34q33 7 55 -17q23 -23 17 -56q-4 -21 -33 -50l-191 -190q-28 -28 -56 -28q-29 0 -57 28l-191 190q-29 29 -33 50q-7 33 17 56q22 24 55 17q22 -6 50 -34z" />
    <glyph glyph-name="ncaron" unicode="&#x148;" horiz-adv-x="1157" 
d="M983 644v-552q0 -46 -13 -68q-20 -32 -62 -32q-43 0 -61 32q-13 22 -13 68v526q0 132 -65 200.5t-182 68.5q-118 0 -185 -69.5t-67 -199.5v-526q0 -46 -13 -68q-20 -32 -62 -32q-41 0 -61 32q-14 24 -14 68v823q0 46 14 69q20 32 61 32q42 0 62 -32q13 -21 13 -69v-18
q111 123 282 123q166 0 262 -94q104 -101 104 -282zM423 1503l159 -158l158 158q28 28 51 34q32 6 54 -17q23 -24 17 -56q-4 -21 -33 -50l-191 -190q-28 -28 -56 -28q-29 0 -57 28l-191 190q-29 29 -33 50q-7 32 17 56q22 24 55 17q22 -6 50 -34z" />
    <glyph glyph-name="napostrophe" unicode="&#x149;" horiz-adv-x="1504" 
d="M1330 644v-552q0 -46 -13 -68q-20 -32 -62 -32q-43 0 -61 32q-13 22 -13 68v526q0 132 -65 200.5t-182 68.5q-118 0 -185 -69.5t-67 -199.5v-526q0 -46 -13 -68q-20 -32 -62 -32q-41 0 -61 32q-14 24 -14 68v823q0 46 14 69q20 32 61 32q42 0 62 -32q13 -21 13 -69v-18
q111 123 283 123q165 0 261 -94q104 -101 104 -282zM358 1348l-73 -222q-14 -42 -34 -60q-16 -15 -43 -15q-25 0 -47 15t-27 38q-5 26 9 70l74 221q14 42 34 60q17 15 43 15q25 0 47 -15t27 -38t-10 -69z" />
    <glyph glyph-name="Eng" unicode="&#x14a;" horiz-adv-x="1501" 
d="M1141 -167v186l-772 1141v-1062q0 -49 -15 -73q-21 -33 -64 -33q-44 0 -65 33q-14 22 -14 73v1265q0 54 25 79q22 24 59 24q27 0 46.5 -15t42.5 -47l749 -1106v1062q0 52 14 74q20 32 64 32q45 0 65 -32q14 -22 14 -74v-1532q0 -118 -66.5 -194t-189.5 -76h-26
q-48 0 -67 12q-28 18 -28 52t28 52q21 13 67 13q133 0 133 146z" />
    <glyph glyph-name="eng" unicode="&#x14b;" horiz-adv-x="1157" 
d="M983 644v-816q0 -118 -66.5 -194t-189.5 -76h-27q-46 0 -66 12q-28 18 -28 52t28 52q21 13 66 13q134 0 134 146v785q0 132 -65 200.5t-182 68.5q-118 0 -185 -69.5t-67 -199.5v-526q0 -46 -13 -68q-20 -32 -62 -32q-41 0 -61 32q-14 24 -14 68v823q0 46 14 69
q20 32 61 32q42 0 62 -32q13 -21 13 -69v-18q111 123 282 123q166 0 262 -94q104 -101 104 -282z" />
    <glyph glyph-name="Omacron" unicode="&#x14c;" horiz-adv-x="1335" 
d="M668 1470q219 0 364 -143q42 -42 68.5 -85t43 -87t24.5 -112.5t10 -134t2 -179.5t-2 -179.5t-10 -134t-24.5 -112.5t-43 -87t-68.5 -85q-145 -143 -364 -143q-220 0 -365 143q-42 42 -68.5 85t-42.5 86.5t-24 113t-10 134.5t-2 179t2 179t10 134.5t24 113t42.5 86.5
t68.5 85q145 143 365 143zM668 127q151 0 252 104q66 67 84 164t18 334t-18 334t-84 164q-101 104 -252 104t-252 -104q-66 -67 -84.5 -164.5t-18.5 -333.5t18.5 -333.5t84.5 -164.5q101 -104 252 -104zM890 1626h-445q-40 0 -59 11q-27 17 -27 52q0 34 27 51q19 11 59 11
h445q40 0 59 -11q27 -17 27 -51q0 -35 -27 -52q-19 -11 -59 -11z" />
    <glyph glyph-name="omacron" unicode="&#x14d;" 
d="M545 121q109 0 182 73q48 48 65 126.5t17 183.5t-17 183t-65 126q-74 74 -182 74q-109 0 -183 -74q-48 -48 -64.5 -125.5t-16.5 -183.5t16.5 -184t64.5 -126q73 -73 183 -73zM545 1020q175 0 290 -115q72 -73 97.5 -170t25.5 -231q0 -133 -25.5 -231t-97.5 -171
q-114 -114 -290 -114t-290 114q-72 73 -98 171t-26 231t26 230t98 171q115 115 290 115zM767 1257h-444q-39 0 -60 12q-26 17 -26 51t26 51q19 11 60 11h444q40 0 59 -11q27 -17 27 -51t-27 -51q-21 -12 -59 -12z" />
    <glyph glyph-name="Obreve" unicode="&#x14e;" horiz-adv-x="1335" 
d="M668 1470q219 0 364 -143q42 -42 68.5 -85t43 -87t24.5 -112.5t10 -134t2 -179.5t-2 -179.5t-10 -134t-24.5 -112.5t-43 -87t-68.5 -85q-145 -143 -364 -143q-220 0 -365 143q-42 42 -68.5 85t-42.5 86.5t-24 113t-10 134.5t-2 179t2 179t10 134.5t24 113t42.5 86.5
t68.5 85q145 143 365 143zM668 127q151 0 252 104q66 67 84 164t18 334t-18 334t-84 164q-101 104 -252 104t-252 -104q-66 -67 -84.5 -164.5t-18.5 -333.5t18.5 -333.5t84.5 -164.5q101 -104 252 -104zM668 1590q-138 0 -250 109q-32 30 -34 56q-3 25 16 46q20 22 46 20
q22 -2 49 -27q87 -82 173 -82t173 82q27 25 48 27q26 2 46 -20q19 -21 16 -46q-2 -27 -33 -56q-112 -109 -250 -109z" />
    <glyph glyph-name="obreve" unicode="&#x14f;" 
d="M545 121q109 0 182 73q48 48 65 126.5t17 183.5t-17 183t-65 126q-74 74 -182 74q-109 0 -183 -74q-48 -48 -64.5 -125.5t-16.5 -183.5t16.5 -184t64.5 -126q73 -73 183 -73zM545 1020q175 0 290 -115q72 -73 97.5 -170t25.5 -231q0 -133 -25.5 -231t-97.5 -171
q-114 -114 -290 -114t-290 114q-72 73 -98 171t-26 231t26 230t98 171q115 115 290 115zM545 1208q-138 0 -250 109q-32 30 -34 56q-3 24 17 46t46 20q21 -2 48 -27q87 -82 173 -82t173 82q27 25 48 27q26 2 46 -20q19 -21 16 -46q-2 -27 -33 -56q-112 -109 -250 -109z" />
    <glyph glyph-name="Ohungarumlaut" unicode="&#x150;" horiz-adv-x="1335" 
d="M668 1470q219 0 364 -143q42 -42 68.5 -85t43 -87t24.5 -112.5t10 -134t2 -179.5t-2 -179.5t-10 -134t-24.5 -112.5t-43 -87t-68.5 -85q-145 -143 -364 -143q-220 0 -365 143q-42 42 -68.5 85t-42.5 86.5t-24 113t-10 134.5t-2 179t2 179t10 134.5t24 113t42.5 86.5
t68.5 85q145 143 365 143zM668 127q151 0 252 104q66 67 84 164t18 334t-18 334t-84 164q-101 104 -252 104t-252 -104q-66 -67 -84.5 -164.5t-18.5 -333.5t18.5 -333.5t84.5 -164.5q101 -104 252 -104zM471 1714l104 167q19 30 34 42q17 12 37 12t37 -11q36 -21 34 -58
q-1 -21 -25 -59l-104 -167q-19 -30 -34 -42q-16 -12 -37 -12t-37 11q-36 21 -34 59q1 20 25 58zM809 1714l104 167q19 30 34 42q17 12 37 12t37 -11q36 -21 34 -58q-1 -21 -25 -59l-104 -167q-19 -30 -34 -42q-16 -12 -37 -12t-37 11q-36 21 -34 59q1 20 25 58z" />
    <glyph glyph-name="ohungarumlaut" unicode="&#x151;" 
d="M545 121q109 0 182 73q48 48 65 126.5t17 183.5t-17 183t-65 126q-74 74 -182 74q-109 0 -183 -74q-48 -48 -64.5 -125.5t-16.5 -183.5t16.5 -184t64.5 -126q73 -73 183 -73zM545 1020q175 0 290 -115q72 -73 97.5 -170t25.5 -231q0 -133 -25.5 -231t-97.5 -171
q-114 -114 -290 -114t-290 114q-72 73 -98 171t-26 231t26 230t98 171q115 115 290 115zM349 1334l105 167q19 32 33 42q17 12 37 12t37 -11q36 -21 34 -58q-1 -21 -25 -59l-104 -166q-19 -30 -34 -42q-18 -13 -37 -13t-37 12q-35 20 -33 58q1 22 24 58zM687 1334l105 167
q19 32 33 42q17 12 37 12t37 -11q36 -21 34 -58q-1 -21 -25 -59l-104 -166q-19 -30 -34 -42q-18 -13 -37 -13t-37 12q-35 20 -33 58q1 22 24 58z" />
    <glyph glyph-name="OE" unicode="&#x152;" horiz-adv-x="2038" 
d="M1117 1458h720q48 0 68 -12q29 -19 29 -57q0 -39 -29 -58q-20 -12 -68 -12h-658v-514h546q48 0 68 -12q30 -20 30 -58q0 -37 -30 -57q-20 -12 -68 -12h-546v-527h658q48 0 68 -12q29 -19 29 -57q0 -39 -29 -58q-20 -12 -68 -12h-720q-52 0 -74 22q-21 21 -21 73v41
q-140 -148 -354 -148q-220 0 -365 143q-42 42 -68.5 85t-42.5 86.5t-24 113t-10 134.5t-2 179t2 179t10 134.5t24 113t42.5 86.5t68.5 85q145 143 365 143q214 0 354 -148v41q0 53 21 74t74 21zM668 126q151 0 252 104q66 67 84 164.5t18 334.5t-18 334.5t-84 164.5
q-101 104 -252 104t-252 -104q-66 -67 -84.5 -165t-18.5 -334t18.5 -334t84.5 -165q101 -104 252 -104z" />
    <glyph glyph-name="oe" unicode="&#x153;" horiz-adv-x="1763" 
d="M545 121q109 0 182 73q48 48 65 126.5t17 183.5t-17 183t-65 126q-74 74 -182 74q-109 0 -183 -74q-48 -48 -64.5 -125.5t-16.5 -183.5t16.5 -184t64.5 -126q73 -73 183 -73zM957 579h535q-4 96 -32 163q-29 70 -91 110.5t-144 40.5t-145 -41t-91 -110q-28 -67 -32 -163z
M545 -12q-176 0 -290 114q-72 73 -98 171t-26 231t26 230t98 171q115 115 290 115q114 0 203.5 -50.5t139.5 -143.5q105 194 337 194q190 0 300.5 -127t112.5 -340q0 -48 -20 -68q-19 -19 -66 -19h-595q0 -166 77 -257.5t222 -91.5q132 0 217 72q25 21 38.5 28.5t30.5 7.5
q24 0 44 -19.5t20 -44.5q0 -49 -105 -115q-97 -58 -251 -58q-256 0 -364 193q-49 -92 -138 -142.5t-203 -50.5z" />
    <glyph glyph-name="Racute" unicode="&#x154;" horiz-adv-x="1345" 
d="M211 1363q0 53 21 74t74 21h466q194 0 314 -109t120 -296q0 -156 -86.5 -258t-231.5 -133l302 -528q23 -42 23 -71q0 -39 -39 -60q-19 -11 -40 -11q-27 0 -45 16.5t-35 47.5l-338 591h-347v-549q0 -49 -15 -73q-21 -33 -64 -33q-44 0 -65 33q-14 22 -14 73v1265z
M758 1319h-389v-535h389q132 0 211.5 68.5t79.5 198.5t-79.5 199t-211.5 69zM632 1710l104 167q19 30 34 42q16 12 37 12t37 -11q36 -21 34 -58q-1 -21 -25 -59l-104 -167q-19 -30 -34 -42q-17 -12 -37 -12t-37 11q-36 21 -34 59q1 20 25 58z" />
    <glyph glyph-name="racute" unicode="&#x155;" horiz-adv-x="864" 
d="M335 916v-29q42 61 116.5 97t158.5 36q106 0 182 -48q56 -34 56 -76q0 -30 -22 -52t-51 -22q-21 0 -70 29q-59 36 -126 36q-111 0 -177.5 -76t-66.5 -196v-523q0 -47 -13 -68q-20 -32 -62 -32q-41 0 -61 32q-14 23 -14 68v824q0 46 14 69q20 32 61 32q42 0 62 -32
q13 -21 13 -69zM389 1334l105 167q19 32 33 42q17 12 37 12t37 -11q36 -21 34 -58q-1 -21 -25 -59l-104 -166q-19 -30 -34 -42q-18 -13 -37 -13t-37 12q-35 20 -33 58q1 22 24 58z" />
    <glyph glyph-name="uni0156" unicode="&#x156;" horiz-adv-x="1345" 
d="M211 1363q0 53 21 74t74 21h466q194 0 314 -109t120 -296q0 -156 -86.5 -258t-231.5 -133l302 -528q23 -42 23 -71q0 -39 -39 -60q-19 -11 -40 -11q-27 0 -45 16.5t-35 47.5l-338 591h-347v-549q0 -49 -15 -73q-21 -33 -64 -33q-44 0 -65 33q-14 22 -14 73v1265z
M758 1319h-389v-535h389q132 0 211.5 68.5t79.5 198.5t-79.5 199t-211.5 69zM523 -346l105 167q19 30 34 42q16 12 36 12t37 -11q36 -21 34 -59q-1 -20 -25 -58l-104 -167q-19 -30 -34 -42q-16 -12 -37 -12t-37 11q-35 20 -33 59q1 22 24 58z" />
    <glyph glyph-name="uni0157" unicode="&#x157;" horiz-adv-x="864" 
d="M335 916v-29q42 61 116.5 97t158.5 36q106 0 182 -48q56 -34 56 -76q0 -30 -22 -52t-51 -22q-21 0 -70 29q-59 36 -126 36q-111 0 -177.5 -76t-66.5 -196v-523q0 -47 -13 -68q-20 -32 -62 -32q-41 0 -61 32q-14 23 -14 68v824q0 46 14 69q20 32 61 32q42 0 62 -32
q13 -21 13 -69zM78 -346l104 167q19 30 34 42q17 12 37 12q21 0 37 -11q36 -21 34 -59q-1 -20 -25 -58l-104 -167q-19 -30 -34 -42q-16 -12 -37 -12q-20 0 -37 11q-36 21 -34 59q1 20 25 58z" />
    <glyph glyph-name="Rcaron" unicode="&#x158;" horiz-adv-x="1345" 
d="M211 1363q0 53 21 74t74 21h466q194 0 314 -109t120 -296q0 -156 -86.5 -258t-231.5 -133l302 -528q23 -42 23 -71q0 -39 -39 -60q-19 -11 -40 -11q-27 0 -45 16.5t-35 47.5l-338 591h-347v-549q0 -49 -15 -73q-21 -33 -64 -33q-44 0 -65 33q-14 22 -14 73v1265z
M758 1319h-389v-535h389q132 0 211.5 68.5t79.5 198.5t-79.5 199t-211.5 69zM513 1886l159 -159l158 159q28 28 51 34q32 6 54 -17q23 -23 17 -56q-4 -23 -32 -50l-192 -190q-28 -28 -56 -28q-29 0 -57 28l-191 190q-29 29 -33 50q-6 32 18 56q22 23 54 17q22 -6 50 -34z
" />
    <glyph glyph-name="rcaron" unicode="&#x159;" horiz-adv-x="864" 
d="M335 916v-29q42 61 116.5 97t158.5 36q106 0 182 -48q56 -34 56 -76q0 -30 -22 -52t-51 -22q-21 0 -70 29q-59 36 -126 36q-111 0 -177.5 -76t-66.5 -196v-523q0 -47 -13 -68q-20 -32 -62 -32q-41 0 -61 32q-14 23 -14 68v824q0 46 14 69q20 32 61 32q42 0 62 -32
q13 -21 13 -69zM268 1503l159 -158l159 158q28 28 50 34q32 6 54 -17q24 -24 18 -56q-4 -21 -33 -50l-192 -190q-28 -28 -56 -28t-56 28l-192 190q-29 29 -33 50q-6 32 18 56q22 23 54 17q22 -6 50 -34z" />
    <glyph glyph-name="Sacute" unicode="&#x15a;" horiz-adv-x="1205" 
d="M675 650l-171 27q-89 13 -150 38t-115 73q-113 100 -113 272q0 187 126 298.5t341 111.5q111 0 186.5 -22t170.5 -80q61 -36 61 -80q0 -26 -18 -46q-19 -22 -49 -22q-26 0 -72 28q-73 50 -134 68.5t-151 18.5q-145 0 -227 -73t-82 -195q0 -114 67 -171q40 -34 83 -52
t113 -28l160 -24q102 -17 162 -39.5t106 -62.5q122 -103 122 -289q0 -190 -138 -301.5t-367 -111.5q-133 0 -223.5 27.5t-191.5 95.5q-66 44 -66 89q0 31 22 53q19 19 48 19q32 0 73 -32q82 -62 159 -87.5t184 -25.5q161 0 253 71t92 198q0 121 -71 184q-35 30 -72.5 44
t-117.5 26zM560 1710l105 167q19 32 33 42q16 12 37 12t37 -11q36 -21 34 -58q-1 -21 -25 -59l-104 -167q-19 -30 -34 -42q-17 -12 -37 -12t-37 11q-35 20 -33 59q1 22 24 58z" />
    <glyph glyph-name="sacute" unicode="&#x15b;" horiz-adv-x="1015" 
d="M148 84q-49 32 -49 70q0 29 24 51q17 15 43 15t67 -29q105 -75 266 -75q130 0 199 44.5t69 132.5q0 67 -41 102.5t-127 43.5l-166 16q-301 26 -301 270q0 135 103.5 215.5t267.5 80.5q155 0 281 -64q38 -18 51 -36q11 -16 11 -38q0 -19 -17 -40q-20 -22 -47 -22
q-18 0 -56 20q-103 54 -225 54q-107 0 -166.5 -43.5t-59.5 -122.5q0 -68 43 -102.5t135 -42.5l161 -16q143 -13 220 -75.5t77 -197.5q0 -144 -112 -225.5t-298 -81.5q-214 0 -353 96zM479 1334l105 167q19 32 33 42q17 12 37 12t37 -11q36 -21 34 -58q-1 -21 -25 -59
l-104 -166q-19 -30 -34 -42q-18 -13 -37 -13t-37 12q-35 20 -33 58q1 22 24 58z" />
    <glyph glyph-name="Scircumflex" unicode="&#x15c;" horiz-adv-x="1205" 
d="M675 650l-171 27q-89 13 -150 38t-115 73q-113 100 -113 272q0 187 126 298.5t341 111.5q111 0 186.5 -22t170.5 -80q61 -36 61 -80q0 -26 -18 -46q-19 -22 -49 -22q-26 0 -72 28q-73 50 -134 68.5t-151 18.5q-145 0 -227 -73t-82 -195q0 -114 67 -171q40 -34 83 -52
t113 -28l160 -24q102 -17 162 -39.5t106 -62.5q122 -103 122 -289q0 -190 -138 -301.5t-367 -111.5q-133 0 -223.5 27.5t-191.5 95.5q-66 44 -66 89q0 31 22 53q19 19 48 19q32 0 73 -32q82 -62 159 -87.5t184 -25.5q161 0 253 71t92 198q0 121 -71 184q-35 30 -72.5 44
t-117.5 26zM600 1776l-159 -159q-28 -28 -50 -34q-30 -6 -54 18q-25 25 -18 55q6 23 33 50l192 190q28 28 56 28t56 -28l192 -190q27 -27 33 -50q7 -30 -18 -55q-24 -24 -54 -18q-22 6 -50 34z" />
    <glyph glyph-name="scircumflex" unicode="&#x15d;" horiz-adv-x="1015" 
d="M148 84q-49 32 -49 70q0 29 24 51q17 15 43 15t67 -29q105 -75 266 -75q130 0 199 44.5t69 132.5q0 67 -41 102.5t-127 43.5l-166 16q-301 26 -301 270q0 135 103.5 215.5t267.5 80.5q155 0 281 -64q38 -18 51 -36q11 -16 11 -38q0 -19 -17 -40q-20 -22 -47 -22
q-18 0 -56 20q-103 54 -225 54q-107 0 -166.5 -43.5t-59.5 -122.5q0 -68 43 -102.5t135 -42.5l161 -16q143 -13 220 -75.5t77 -197.5q0 -144 -112 -225.5t-298 -81.5q-214 0 -353 96zM517 1393l-159 -159q-28 -28 -50 -34q-30 -6 -54 18q-25 25 -17 55q7 25 32 50l192 190
q28 28 56 28t56 -28l192 -190q27 -27 33 -50q7 -30 -18 -55q-24 -24 -54 -18q-22 6 -50 34z" />
    <glyph glyph-name="Scedilla" unicode="&#x15e;" horiz-adv-x="1205" 
d="M675 650l-171 27q-89 13 -150 38t-115 73q-113 100 -113 272q0 187 126 298.5t341 111.5q111 0 186.5 -22t170.5 -80q61 -36 61 -80q0 -26 -18 -46q-19 -22 -49 -22q-26 0 -72 28q-73 50 -134 68.5t-151 18.5q-145 0 -227 -73t-82 -195q0 -114 67 -171q40 -34 83 -52
t113 -28l160 -24q102 -17 162 -39.5t106 -62.5q122 -103 122 -289q0 -190 -138 -301.5t-367 -111.5q-133 0 -223.5 27.5t-191.5 95.5q-66 44 -66 89q0 31 22 53q19 19 48 19q32 0 73 -32q82 -62 159 -87.5t184 -25.5q161 0 253 71t92 198q0 121 -71 184q-35 30 -72.5 44
t-117.5 26zM391 -346l105 167q19 32 33 42q17 12 37 12t37 -11q36 -21 34 -59q-1 -20 -25 -58l-104 -167q-19 -30 -34 -42q-16 -12 -37 -12t-37 11q-35 20 -33 59q1 22 24 58z" />
    <glyph glyph-name="scedilla" unicode="&#x15f;" horiz-adv-x="1015" 
d="M148 84q-49 32 -49 70q0 29 24 51q17 15 43 15t67 -29q105 -75 266 -75q130 0 199 44.5t69 132.5q0 67 -41 102.5t-127 43.5l-166 16q-301 26 -301 270q0 135 103.5 215.5t267.5 80.5q155 0 281 -64q38 -18 51 -36q11 -16 11 -38q0 -19 -17 -40q-20 -22 -47 -22
q-18 0 -56 20q-103 54 -225 54q-107 0 -166.5 -43.5t-59.5 -122.5q0 -68 43 -102.5t135 -42.5l161 -16q143 -13 220 -75.5t77 -197.5q0 -144 -112 -225.5t-298 -81.5q-214 0 -353 96zM330 -346l104 167q19 30 34 42q16 12 37 12t37 -11q35 -20 33 -59q-1 -22 -24 -58
l-105 -167q-19 -32 -33 -42q-17 -12 -37 -12t-37 11q-36 21 -34 59q1 20 25 58z" />
    <glyph glyph-name="Scaron" unicode="&#x160;" horiz-adv-x="1205" 
d="M675 650l-171 27q-89 13 -150 38t-115 73q-113 100 -113 272q0 187 126 298.5t341 111.5q111 0 186.5 -22t170.5 -80q61 -36 61 -80q0 -26 -18 -46q-19 -22 -49 -22q-26 0 -72 28q-73 50 -134 68.5t-151 18.5q-145 0 -227 -73t-82 -195q0 -114 67 -171q40 -34 83 -52
t113 -28l160 -24q102 -17 162 -39.5t106 -62.5q122 -103 122 -289q0 -190 -138 -301.5t-367 -111.5q-133 0 -223.5 27.5t-191.5 95.5q-66 44 -66 89q0 31 22 53q19 19 48 19q32 0 73 -32q82 -62 159 -87.5t184 -25.5q161 0 253 71t92 198q0 121 -71 184q-35 30 -72.5 44
t-117.5 26zM441 1886l159 -159l159 159q28 28 50 34q32 6 54 -17q24 -24 18 -56q-4 -21 -33 -50l-192 -190q-28 -28 -56 -28t-56 28l-192 190q-29 29 -33 50q-6 32 18 56q22 23 54 17q22 -6 50 -34z" />
    <glyph glyph-name="scaron" unicode="&#x161;" horiz-adv-x="1015" 
d="M148 84q-49 32 -49 70q0 29 24 51q17 15 43 15t67 -29q105 -75 266 -75q130 0 199 44.5t69 132.5q0 67 -41 102.5t-127 43.5l-166 16q-301 26 -301 270q0 135 103.5 215.5t267.5 80.5q155 0 281 -64q38 -18 51 -36q11 -16 11 -38q0 -19 -17 -40q-20 -22 -47 -22
q-18 0 -56 20q-103 54 -225 54q-107 0 -166.5 -43.5t-59.5 -122.5q0 -68 43 -102.5t135 -42.5l161 -16q143 -13 220 -75.5t77 -197.5q0 -144 -112 -225.5t-298 -81.5q-214 0 -353 96zM358 1503l159 -158l159 158q28 28 50 34q32 6 54 -17q24 -24 18 -56q-4 -21 -33 -50
l-192 -190q-28 -28 -56 -28t-56 28l-192 190q-27 28 -32 50q-7 32 17 56q22 23 54 17q22 -6 50 -34z" />
    <glyph glyph-name="uni0162" unicode="&#x162;" horiz-adv-x="1120" 
d="M150 1458h821q47 0 67 -12q30 -20 30 -57q0 -38 -30 -58q-20 -12 -67 -12h-332v-1221q0 -51 -14 -73q-21 -33 -65 -33q-43 0 -64 33q-15 24 -15 73v1221h-331q-48 0 -68 12q-30 20 -30 58q0 37 30 57q20 12 68 12zM370 -346l104 167q19 30 34 42q16 12 37 12t37 -11
q35 -20 33 -59q-1 -22 -24 -58l-105 -167q-19 -32 -33 -42q-16 -12 -37 -12t-37 11q-36 21 -34 59q1 20 25 58z" />
    <glyph glyph-name="uni0163" unicode="&#x163;" horiz-adv-x="688" 
d="M366 893v-618q0 -146 133 -146q47 0 66 -12q28 -18 28 -52q0 -35 -28 -53q-19 -12 -66 -12h-27q-123 0 -189.5 76t-66.5 194v623h-71q-39 0 -54 10q-24 14 -24 47t24 47q16 11 54 11h71v216q0 47 13 68q20 32 62 32q41 0 61 -32q14 -23 14 -68v-216h148q38 0 54 -11
q25 -15 25 -47t-25 -47q-15 -10 -54 -10h-148zM218 -346l105 167q19 32 33 42q16 12 37 12q20 0 37 -11q36 -21 34 -59q-1 -20 -25 -58l-104 -167q-19 -30 -34 -42q-17 -12 -37 -12q-21 0 -37 11q-35 20 -33 59q1 22 24 58z" />
    <glyph glyph-name="Tcaron" unicode="&#x164;" horiz-adv-x="1120" 
d="M150 1458h821q47 0 67 -12q30 -20 30 -57q0 -38 -30 -58q-20 -12 -67 -12h-332v-1221q0 -51 -14 -73q-21 -33 -65 -33q-43 0 -64 33q-15 24 -15 73v1221h-331q-48 0 -68 12q-30 20 -30 58q0 37 30 57q20 12 68 12zM401 1886l159 -159l159 159q28 28 50 34q32 6 54 -17
q24 -24 18 -56q-4 -21 -33 -50l-192 -190q-28 -28 -56 -28t-56 28l-192 190q-28 27 -32 50q-6 33 17 56q22 23 54 17q22 -6 50 -34z" />
    <glyph glyph-name="tcaron" unicode="&#x165;" horiz-adv-x="688" 
d="M366 893v-618q0 -146 133 -146q47 0 66 -12q28 -18 28 -52q0 -35 -28 -53q-19 -12 -66 -12h-27q-123 0 -189.5 76t-66.5 194v623h-71q-39 0 -54 10q-24 14 -24 47t24 47q16 11 54 11h71v216q0 47 13 68q20 32 62 32q41 0 61 -32q14 -23 14 -68v-216h148q38 0 54 -11
q25 -15 25 -47t-25 -47q-15 -10 -54 -10h-148zM690 1394l-58 -174q-12 -37 -28 -53q-15 -17 -43 -17q-24 0 -41.5 12.5t-23.5 32.5q-7 23 7 68l58 174q11 35 28 52q15 17 43 17q24 0 41.5 -12.5t23.5 -32.5q7 -22 -7 -67z" />
    <glyph glyph-name="Tbar" unicode="&#x166;" horiz-adv-x="1120" 
d="M150 1458h821q47 0 67 -12q30 -20 30 -57q0 -38 -30 -58q-20 -12 -67 -12h-332v-520h173q42 0 61 -12q27 -17 27 -52t-27 -52q-17 -11 -61 -11h-173v-574q0 -51 -14 -73q-21 -33 -65 -33q-43 0 -64 33q-15 24 -15 73v574h-173q-44 0 -61 11q-27 17 -27 52t27 52
q19 12 61 12h173v520h-331q-48 0 -68 12q-30 20 -30 58q0 37 30 57q20 12 68 12z" />
    <glyph glyph-name="tbar" unicode="&#x167;" horiz-adv-x="688" 
d="M216 1008v216q0 47 13 68q20 32 62 32q41 0 61 -32q14 -23 14 -68v-216h148q38 0 54 -11q25 -15 25 -47t-25 -47q-15 -10 -54 -10h-148v-265h122q38 0 55 -11q24 -14 24 -47t-24 -47q-15 -10 -55 -10h-122v-238q0 -146 133 -146q47 0 66 -12q28 -18 28 -52q0 -35 -28 -53
q-19 -12 -66 -12h-27q-123 0 -189.5 76t-66.5 194v243h-65q-40 0 -55 10q-24 14 -24 47t24 47q16 11 55 11h65v265h-71q-39 0 -54 10q-24 14 -24 47t24 47q16 11 54 11h71z" />
    <glyph glyph-name="Utilde" unicode="&#x168;" horiz-adv-x="1400" 
d="M1211 481q0 -217 -144.5 -355t-367.5 -138t-366.5 138t-143.5 355v879q0 50 15 74q20 32 64 32q45 0 65 -32q14 -22 14 -74v-866q0 -166 96 -266.5t256 -100.5t257.5 100.5t97.5 266.5v866q0 52 14 74q20 32 65 32q44 0 64 -32q14 -22 14 -74v-879zM682 1659
q-70 42 -114 42q-25 0 -43.5 -6.5t-46.5 -30.5q-32 -27 -52 -27q-22 0 -38 16q-15 15 -15 40q0 30 37 62q75 64 156 64q42 0 73 -10.5t74 -36.5q70 -42 113 -42q17 0 28 1.5t27 10t35 24.5q32 27 53 27q23 0 38 -15t15 -40q0 -31 -37 -63q-74 -63 -157 -63q-42 0 -72.5 10.5
t-73.5 36.5z" />
    <glyph glyph-name="utilde" unicode="&#x169;" horiz-adv-x="1157" 
d="M174 364v551q0 47 13 69q20 32 62 32q43 0 61 -32q14 -24 14 -69v-526q0 -132 64.5 -200t181.5 -68q118 0 185 69t67 199v526q0 45 14 69q20 32 61 32t61 -32q14 -24 14 -69v-823q0 -45 -14 -68q-20 -32 -61 -32t-61 32q-14 23 -14 68v19q-111 -123 -282 -123
q-165 0 -261 94q-105 102 -105 282zM556 1288q-70 42 -114 42q-25 0 -43.5 -6.5t-46.5 -30.5q-31 -26 -52 -26q-23 0 -38 15t-15 40q0 30 37 62q75 64 156 64q42 0 73 -10.5t74 -36.5q70 -42 113 -42q25 0 44 7t47 30q31 26 52 26q23 0 38 -15t15 -40q0 -30 -37 -62
q-75 -64 -157 -64q-42 0 -72.5 10.5t-73.5 36.5z" />
    <glyph glyph-name="Umacron" unicode="&#x16a;" horiz-adv-x="1400" 
d="M1211 481q0 -217 -144.5 -355t-367.5 -138t-366.5 138t-143.5 355v879q0 50 15 74q20 32 64 32q45 0 65 -32q14 -22 14 -74v-866q0 -166 96 -266.5t256 -100.5t257.5 100.5t97.5 266.5v866q0 52 14 74q20 32 65 32q44 0 64 -32q14 -22 14 -74v-879zM922 1626h-445
q-40 0 -59 11q-27 17 -27 52q0 34 27 51q19 11 59 11h445q40 0 59 -11q27 -17 27 -51q0 -35 -27 -52q-19 -11 -59 -11z" />
    <glyph glyph-name="umacron" unicode="&#x16b;" horiz-adv-x="1157" 
d="M174 364v551q0 47 13 69q20 32 62 32q43 0 61 -32q14 -24 14 -69v-526q0 -132 64.5 -200t181.5 -68q118 0 185 69t67 199v526q0 45 14 69q20 32 61 32t61 -32q14 -24 14 -69v-823q0 -45 -14 -68q-20 -32 -61 -32t-61 32q-14 23 -14 68v19q-111 -123 -282 -123
q-165 0 -261 94q-105 102 -105 282zM794 1257h-445q-38 0 -59 12q-27 17 -27 51t27 51q19 11 59 11h445q40 0 59 -11q27 -17 27 -51t-27 -51q-21 -12 -59 -12z" />
    <glyph glyph-name="Ubreve" unicode="&#x16c;" horiz-adv-x="1400" 
d="M1211 481q0 -217 -144.5 -355t-367.5 -138t-366.5 138t-143.5 355v879q0 50 15 74q20 32 64 32q45 0 65 -32q14 -22 14 -74v-866q0 -166 96 -266.5t256 -100.5t257.5 100.5t97.5 266.5v866q0 52 14 74q20 32 65 32q44 0 64 -32q14 -22 14 -74v-879zM699 1590
q-137 0 -249 109q-32 30 -34 56q-3 25 16 46q20 22 46 20q21 -2 48 -27q87 -82 173 -82t173 82q27 25 49 27q26 2 46 -20q19 -21 16 -46q-2 -26 -34 -56q-112 -109 -250 -109z" />
    <glyph glyph-name="ubreve" unicode="&#x16d;" horiz-adv-x="1157" 
d="M174 364v551q0 47 13 69q20 32 62 32q43 0 61 -32q14 -24 14 -69v-526q0 -132 64.5 -200t181.5 -68q118 0 185 69t67 199v526q0 45 14 69q20 32 61 32t61 -32q14 -24 14 -69v-823q0 -45 -14 -68q-20 -32 -61 -32t-61 32q-14 23 -14 68v19q-111 -123 -282 -123
q-165 0 -261 94q-105 102 -105 282zM571 1208q-137 0 -249 109q-32 30 -34 56q-3 25 16 46q20 22 46 20q21 -2 48 -27q87 -82 173 -82t173 82q27 25 49 27q26 2 46 -20q19 -21 16 -46q-2 -26 -34 -56q-112 -109 -250 -109z" />
    <glyph glyph-name="Uring" unicode="&#x16e;" horiz-adv-x="1400" 
d="M1211 481q0 -217 -144.5 -355t-367.5 -138t-366.5 138t-143.5 355v879q0 50 15 74q20 32 64 32q45 0 65 -32q14 -22 14 -74v-866q0 -166 96 -266.5t256 -100.5t257.5 100.5t97.5 266.5v866q0 52 14 74q20 32 65 32q44 0 64 -32q14 -22 14 -74v-879zM457 1774
q0 100 70.5 171t171.5 71t172 -71t71 -171t-71 -171.5t-172 -71.5q-100 0 -171 71t-71 172zM558 1774q0 -59 41.5 -100.5t99.5 -41.5q59 0 100.5 42t41.5 100t-41.5 99.5t-100.5 41.5t-100 -41.5t-41 -99.5z" />
    <glyph glyph-name="uring" unicode="&#x16f;" horiz-adv-x="1157" 
d="M174 364v551q0 47 13 69q20 32 62 32q43 0 61 -32q14 -24 14 -69v-526q0 -132 64.5 -200t181.5 -68q118 0 185 69t67 199v526q0 45 14 69q20 32 61 32t61 -32q14 -24 14 -69v-823q0 -45 -14 -68q-20 -32 -61 -32t-61 32q-14 23 -14 68v19q-111 -123 -282 -123
q-165 0 -261 94q-105 102 -105 282zM329 1407q0 101 71 172t171 71q101 0 172 -71t71 -172t-71 -172t-172 -71q-100 0 -171 71t-71 172zM430 1407q0 -59 41 -100t100 -41t100.5 41.5t41.5 99.5t-41.5 99.5t-100.5 41.5t-100 -41t-41 -100z" />
    <glyph glyph-name="Uhungarumlaut" unicode="&#x170;" horiz-adv-x="1400" 
d="M1211 481q0 -217 -144.5 -355t-367.5 -138t-366.5 138t-143.5 355v879q0 50 15 74q20 32 64 32q45 0 65 -32q14 -22 14 -74v-866q0 -166 96 -266.5t256 -100.5t257.5 100.5t97.5 266.5v866q0 52 14 74q20 32 65 32q44 0 64 -32q14 -22 14 -74v-879zM503 1714l104 167
q19 30 34 42q17 12 37 12t37 -11q36 -21 34 -58q-1 -21 -25 -59l-104 -167q-19 -30 -34 -42q-16 -12 -37 -12t-37 11q-36 21 -34 59q1 20 25 58zM841 1714l104 167q19 30 34 42q17 12 37 12t37 -11q35 -20 33 -58q-1 -23 -24 -59l-105 -167q-19 -32 -33 -42q-16 -12 -37 -12
t-37 11q-36 21 -34 59q1 20 25 58z" />
    <glyph glyph-name="uhungarumlaut" unicode="&#x171;" horiz-adv-x="1157" 
d="M174 364v551q0 47 13 69q20 32 62 32q43 0 61 -32q14 -24 14 -69v-526q0 -132 64.5 -200t181.5 -68q118 0 185 69t67 199v526q0 45 14 69q20 32 61 32t61 -32q14 -24 14 -69v-823q0 -45 -14 -68q-20 -32 -61 -32t-61 32q-14 23 -14 68v19q-111 -123 -282 -123
q-165 0 -261 94q-105 102 -105 282zM376 1334l104 167q19 30 34 42q16 12 37 12t37 -11q36 -21 34 -58q-1 -21 -25 -59l-104 -166q-19 -30 -34 -42q-18 -13 -37 -13t-37 12q-36 21 -34 58q1 20 25 58zM714 1334l104 167q19 30 34 42q16 12 37 12q20 0 37 -11q35 -20 33 -58
q-1 -23 -24 -59l-105 -166q-19 -32 -33 -42q-18 -13 -37 -13t-37 12q-36 21 -34 58q1 20 25 58z" />
    <glyph glyph-name="Uogonek" unicode="&#x172;" horiz-adv-x="1400" 
d="M1211 481q0 -217 -144.5 -355t-367.5 -138t-366.5 138t-143.5 355v879q0 50 15 74q20 32 64 32q45 0 65 -32q14 -22 14 -74v-866q0 -166 96 -266.5t256 -100.5t257.5 100.5t97.5 266.5v866q0 52 14 74q20 32 65 32q44 0 64 -32q14 -22 14 -74v-879zM743 -346l105 167
q19 30 34 42q16 12 37 12q19 0 36 -11q36 -21 34 -59q-1 -22 -24 -58l-105 -167q-19 -30 -34 -42q-16 -12 -36 -12t-37 11q-36 21 -34 59q1 22 24 58z" />
    <glyph glyph-name="uogonek" unicode="&#x173;" horiz-adv-x="1157" 
d="M174 364v551q0 47 13 69q20 32 62 32q43 0 61 -32q14 -24 14 -69v-526q0 -132 64.5 -200t181.5 -68q118 0 185 69t67 199v526q0 45 14 69q20 32 61 32t61 -32q14 -24 14 -69v-823q0 -45 -14 -68q-20 -32 -61 -32t-61 32q-14 23 -14 68v19q-111 -123 -282 -123
q-165 0 -261 94q-105 102 -105 282zM697 -346l105 167q19 30 34 42q16 12 36 12t37 -11q36 -21 34 -59q-1 -22 -24 -58l-105 -167q-19 -30 -34 -42q-16 -12 -37 -12q-19 0 -36 11q-36 21 -34 59q1 22 24 58z" />
    <glyph glyph-name="Wcircumflex" unicode="&#x174;" horiz-adv-x="1761" 
d="M881 1179l-301 -1097q-12 -46 -36 -68q-23 -22 -59 -22q-35 0 -58 22q-24 22 -36 68l-317 1265q-12 49 -5 71q6 22 26.5 35t43.5 13q31 0 47 -16q19 -19 31 -68l276 -1102l301 1105q11 42 29 59q21 20 58 20q36 0 57 -20q19 -18 30 -59l301 -1105l275 1102q12 49 31 68
q16 16 47 16q23 0 44 -13t27 -35q7 -22 -5 -71l-318 -1265q-12 -46 -36 -68q-23 -22 -58 -22t-58 22q-24 22 -36 68zM881 1776l-159 -159q-28 -28 -50 -34q-31 -6 -55 18q-25 25 -17 55q6 23 33 50l191 190q28 28 57 28q28 0 56 -28l191 -190q27 -27 33 -50q8 -30 -17 -55
q-24 -24 -54 -18q-23 6 -51 34z" />
    <glyph glyph-name="wcircumflex" unicode="&#x175;" horiz-adv-x="1472" 
d="M736 798l-212 -696q-20 -69 -46 -90q-23 -20 -57 -20q-36 0 -59 20q-26 21 -46 90l-237 797q-12 46 -6 69q6 21 25 34.5t43 13.5q26 0 47 -21q16 -16 27 -57l210 -733l211 704q21 69 45 88q23 20 55 20q33 0 56 -20q24 -19 45 -88l211 -704l209 733q11 41 27 57
q21 21 47 21q24 0 43.5 -13.5t25.5 -34.5q6 -23 -6 -69l-238 -797q-20 -69 -46 -90q-23 -20 -58 -20t-58 20q-26 21 -46 90zM736 1393l-158 -159q-28 -28 -51 -34q-30 -6 -54 18q-25 25 -17 55q7 25 32 50l192 190q28 28 56 28q29 0 57 -28l191 -190q27 -27 33 -50
q7 -30 -18 -55q-24 -24 -54 -18q-22 6 -50 34z" />
    <glyph glyph-name="Ycircumflex" unicode="&#x176;" horiz-adv-x="1032" 
d="M965 1335l-370 -739v-498q0 -51 -14 -73q-21 -33 -65 -33q-43 0 -64 33q-15 24 -15 73v498l-369 739q-22 46 -20 68q3 37 40 55q16 8 35 8q20 0 35 -10q21 -14 41 -55l317 -635l318 635q20 42 40 55q15 10 35 10q19 0 35 -8q37 -18 40 -55q2 -24 -19 -68zM516 1776
l-159 -159q-28 -28 -50 -34q-30 -6 -54 18q-25 25 -17 55q7 25 32 50l192 190q28 28 56 28t56 -28l192 -190q27 -27 33 -50q7 -30 -18 -55q-24 -24 -54 -18q-22 6 -50 34z" />
    <glyph glyph-name="ycircumflex" unicode="&#x177;" horiz-adv-x="893" 
d="M446 200l245 744q23 72 74 72q22 0 41.5 -12.5t26.5 -31.5q9 -25 -7 -73l-395 -1142q-26 -78 -72 -121q-71 -68 -185 -68q-51 0 -70 15q-22 19 -22 51q0 36 23 53q19 14 55 14q58 0 93.5 27.5t58.5 96.5l64 190l-308 884q-16 48 -7 73q7 19 26.5 31.5t41.5 12.5
q51 0 74 -72zM446 1393l-158 -159q-28 -28 -50 -34q-31 -6 -55 18q-25 25 -17 55q6 23 33 50l191 190q28 28 56 28q29 0 57 -28l191 -190q27 -27 33 -50q8 -30 -17 -55q-24 -24 -55 -18q-22 6 -50 34z" />
    <glyph glyph-name="Ydieresis" unicode="&#x178;" horiz-adv-x="1032" 
d="M965 1335l-370 -739v-498q0 -51 -14 -73q-21 -33 -65 -33q-43 0 -64 33q-15 24 -15 73v498l-369 739q-22 46 -20 68q3 37 40 55q16 8 35 8q20 0 35 -10q21 -14 41 -55l317 -635l318 635q20 42 40 55q15 10 35 10q19 0 35 -8q37 -18 40 -55q2 -24 -19 -68zM205 1704
q0 38 27 65.5t65 27.5t65.5 -27.5t27.5 -65.5t-27.5 -65t-65.5 -27t-65 27t-27 65zM642 1704q0 38 27 65.5t65 27.5t65.5 -27.5t27.5 -65.5t-27.5 -65t-65.5 -27t-65 27t-27 65z" />
    <glyph glyph-name="Zacute" unicode="&#x179;" horiz-adv-x="1125" 
d="M926 0h-730q-55 0 -77 22q-22 24 -22 54q0 26 27 72l707 1171h-606q-47 0 -67 12q-30 20 -30 58q0 37 30 57q20 12 67 12h700q55 0 76 -21q22 -24 22 -55q0 -24 -28 -72l-705 -1171h636q47 0 67 -12q30 -20 30 -57q0 -38 -30 -58q-20 -12 -67 -12zM527 1710l105 167
q19 30 34 42q17 12 36 12q20 0 37 -11q36 -21 34 -58q-1 -23 -24 -59l-105 -167q-19 -30 -34 -42q-17 -12 -37 -12q-19 0 -36 11q-36 21 -34 59q1 22 24 58z" />
    <glyph glyph-name="zacute" unicode="&#x17a;" horiz-adv-x="930" 
d="M209 1008h531q46 0 69 -15q28 -19 28 -52q0 -32 -30 -73l-526 -735h468q45 0 62 -11q29 -19 29 -55q0 -37 -29 -56q-17 -11 -62 -11h-562q-48 0 -67 14q-29 19 -29 54q0 30 31 72l525 734h-438q-44 0 -63 12q-28 19 -28 55t28 55q19 12 63 12zM449 1334l104 167
q19 30 34 42q17 12 37 12t36 -11q36 -21 34 -58q-1 -23 -24 -59l-105 -166q-19 -30 -34 -42q-18 -13 -36 -13q-19 0 -37 12q-36 21 -34 58q1 20 25 58z" />
    <glyph glyph-name="Zdotaccent" unicode="&#x17b;" horiz-adv-x="1125" 
d="M926 0h-730q-55 0 -77 22q-22 24 -22 54q0 26 27 72l707 1171h-606q-47 0 -67 12q-30 20 -30 58q0 37 30 57q20 12 67 12h700q55 0 76 -21q22 -24 22 -55q0 -24 -28 -72l-705 -1171h636q47 0 67 -12q30 -20 30 -57q0 -38 -30 -58q-20 -12 -67 -12zM475 1717q0 38 27 65
t65 27t65 -27t27 -65t-27 -65t-65 -27t-65 27t-27 65z" />
    <glyph glyph-name="zdotaccent" unicode="&#x17c;" horiz-adv-x="930" 
d="M209 1008h531q46 0 69 -15q28 -19 28 -52q0 -32 -30 -73l-526 -735h468q45 0 62 -11q29 -19 29 -55q0 -37 -29 -56q-17 -11 -62 -11h-562q-48 0 -67 14q-29 19 -29 54q0 30 31 72l525 734h-438q-44 0 -63 12q-28 19 -28 55t28 55q19 12 63 12zM394 1335q0 38 27 65t65 27
t65.5 -27t27.5 -65t-27.5 -65t-65.5 -27t-65 27t-27 65z" />
    <glyph glyph-name="Zcaron" unicode="&#x17d;" horiz-adv-x="1125" 
d="M926 0h-730q-55 0 -77 22q-22 24 -22 54q0 26 27 72l707 1171h-606q-47 0 -67 12q-30 20 -30 58q0 37 30 57q20 12 67 12h700q55 0 76 -21q22 -24 22 -55q0 -24 -28 -72l-705 -1171h636q47 0 67 -12q30 -20 30 -57q0 -38 -30 -58q-20 -12 -67 -12zM409 1886l158 -159
l159 159q28 28 50 34q32 6 54 -17q24 -24 18 -56q-4 -21 -33 -50l-191 -190q-28 -28 -57 -28q-28 0 -56 28l-192 190q-27 27 -32 50q-7 33 17 56q22 23 54 17q23 -6 51 -34z" />
    <glyph glyph-name="zcaron" unicode="&#x17e;" horiz-adv-x="930" 
d="M209 1008h531q46 0 69 -15q28 -19 28 -52q0 -32 -30 -73l-526 -735h468q45 0 62 -11q29 -19 29 -55q0 -37 -29 -56q-17 -11 -62 -11h-562q-48 0 -67 14q-29 19 -29 54q0 30 31 72l525 734h-438q-44 0 -63 12q-28 19 -28 55t28 55q19 12 63 12zM328 1503l158 -158l159 158
q28 28 50 34q33 7 55 -17q24 -24 17 -56q-4 -21 -33 -50l-191 -190q-28 -28 -57 -28q-28 0 -56 28l-191 190q-29 29 -33 50q-6 32 17 56q22 24 55 17q22 -6 50 -34z" />
    <glyph glyph-name="longs" unicode="&#x17f;" horiz-adv-x="530" 
d="M335 1187v-1095q0 -47 -13 -68q-20 -32 -62 -32q-41 0 -61 32q-14 23 -14 68v1100q0 118 66.5 194t189.5 76h27q48 0 67 -12q27 -17 27 -52t-27 -52q-21 -13 -67 -13q-133 0 -133 -146z" />
    <glyph glyph-name="uni018E" unicode="&#x18e;" horiz-adv-x="1228" 
d="M202 1458h721q52 0 73 -21q22 -22 22 -74v-1268q0 -51 -22 -73t-73 -22h-721q-48 0 -68 12q-30 20 -30 58q0 37 30 57q20 12 68 12h658v527h-547q-47 0 -67 12q-30 20 -30 57q0 38 30 58q20 12 67 12h547v514h-658q-48 0 -68 12q-30 20 -30 58q0 37 30 57q20 12 68 12z
" />
    <glyph glyph-name="uni018F" unicode="&#x18f;" horiz-adv-x="1331" 
d="M665 1470q221 0 362 -143q42 -42 68.5 -85t43 -87.5t24.5 -112.5t10.5 -134t2.5 -179q0 -114 -2 -179.5t-10 -134t-24.5 -112.5t-43.5 -87t-69 -85q-145 -143 -363 -143t-362 144q-88 87 -116 191t-28 311v29q0 52 21 73q22 22 74 22h765q-1 215 -19.5 309t-83.5 160
q-101 104 -249 104q-120 0 -204.5 -63.5t-123.5 -180.5q-15 -45 -37 -65q-18 -16 -48 -16q-32 0 -52 20q-21 21 -21 57q0 39 25 99.5t68 112.5q144 175 392 175zM310 629v-13q0 -162 20.5 -244.5t80.5 -143.5q101 -101 253 -101q150 0 252 104q59 60 79.5 143t22.5 255h-708
z" />
    <glyph glyph-name="florin" unicode="&#x192;" horiz-adv-x="843" 
d="M598 674h-176l-211 -1049q-9 -46 -30 -66q-19 -17 -44 -17q-31 0 -53 22q-15 15 -17.5 35t4.5 54l205 1021h-138q-39 0 -54 10q-25 15 -25 47t25 47q15 10 54 10h161l82 404q27 132 102.5 201t193.5 69h24q47 0 67 -12q28 -18 28 -52t-28 -52q-18 -13 -50 -13h-28
q-133 0 -167 -159l-78 -386h153q39 0 54 -10q25 -15 25 -47t-25 -47q-15 -10 -54 -10z" />
    <glyph glyph-name="uni01B5" unicode="&#x1b5;" horiz-adv-x="1125" 
d="M926 0h-730q-55 0 -77 22q-22 24 -22 54q0 26 27 72l316 524h-135q-44 0 -61 11q-27 17 -27 52t27 52q19 12 61 12h212l314 520h-606q-47 0 -67 12q-30 20 -30 58q0 37 30 57q20 12 67 12h700q55 0 76 -21q22 -24 22 -55q0 -24 -28 -72l-308 -511h129q43 0 62 -12
q26 -17 26 -52t-26 -52q-17 -11 -62 -11h-206l-320 -533h636q47 0 67 -12q30 -20 30 -57q0 -38 -30 -58q-20 -12 -67 -12z" />
    <glyph glyph-name="uni01B6" unicode="&#x1b6;" horiz-adv-x="930" 
d="M209 1008h531q46 0 69 -15q28 -19 28 -52q0 -32 -30 -73l-204 -284h88q37 0 54 -11q25 -15 25 -47t-25 -47q-15 -10 -54 -10h-170l-240 -336h468q45 0 62 -11q29 -19 29 -55q0 -37 -29 -56q-17 -11 -62 -11h-562q-48 0 -67 14q-29 19 -29 54q0 30 31 72l234 329h-105
q-39 0 -54 10q-25 15 -25 47t25 47q16 11 54 11h187l209 290h-438q-44 0 -63 12q-28 19 -28 55t28 55q19 12 63 12z" />
    <glyph glyph-name="uni01CD" unicode="&#x1cd;" horiz-adv-x="1251" 
d="M63 121l474 1263q14 38 30 57q23 25 59 25q35 0 58 -25q19 -22 31 -57l473 -1263q8 -24 11.5 -39t0 -33.5t-18.5 -33.5q-23 -23 -58 -23q-22 0 -40 13q-20 16 -37 63l-97 262h-648l-96 -262q-17 -46 -38 -63q-18 -13 -40 -13q-34 0 -57 23q-15 15 -18.5 33.5t0 33.5
t11.5 39zM626 1215l-276 -750h550zM467 1886l159 -159l158 159q28 28 51 34q32 6 54 -17q23 -23 17 -56q-4 -21 -33 -50l-191 -190q-28 -28 -56 -28q-29 0 -57 28l-191 190q-29 29 -33 50q-7 33 17 56q22 24 55 17q22 -6 50 -34z" />
    <glyph glyph-name="uni01CE" unicode="&#x1ce;" horiz-adv-x="1078" 
d="M101 286q0 134 93 213t256 79h305v81q0 118 -59 175.5t-189 57.5q-74 0 -124.5 -20.5t-103.5 -68.5q-31 -27 -63 -27q-28 0 -45 19q-18 21 -18 47q0 49 96 112q105 66 259 66q195 0 295 -86t100 -251v-591q0 -47 -13 -68q-20 -32 -62 -32q-41 0 -61 32q-13 21 -13 68v2
q-61 -59 -125.5 -82.5t-163.5 -23.5q-104 0 -172 21.5t-115 70.5q-77 80 -77 206zM248 287q0 -173 232 -173q74 0 126.5 13.5t95.5 54.5q53 51 53 175v108h-289q-108 0 -163 -45.5t-55 -132.5zM359 1503l159 -158l159 158q28 28 50 34q32 6 54 -17q24 -24 18 -56
q-4 -21 -33 -50l-192 -190q-28 -28 -56 -28t-56 28l-192 190q-28 28 -32 50q-6 32 17 56q22 23 54 17q22 -6 50 -34z" />
    <glyph glyph-name="uni01CF" unicode="&#x1cf;" horiz-adv-x="579" 
d="M369 1360v-1262q0 -49 -15 -73q-21 -33 -64 -33q-44 0 -65 33q-14 22 -14 73v1262q0 52 14 74q20 32 65 32q44 0 64 -32q15 -24 15 -74zM131 1886l159 -159l159 159q28 28 50 34q32 6 54 -17q23 -23 17 -56q-4 -23 -32 -50l-192 -190q-28 -28 -56 -28q-29 0 -57 28
l-191 190q-29 29 -33 50q-6 32 18 56q22 23 54 17q22 -6 50 -34z" />
    <glyph glyph-name="uni01D0" unicode="&#x1d0;" horiz-adv-x="530" 
d="M340 915v-823q0 -47 -13 -68q-20 -32 -62 -32q-41 0 -61 32q-14 23 -14 68v823q0 46 14 69q20 32 61 32q42 0 62 -32q13 -21 13 -69zM106 1503l159 -158l159 158q28 28 50 34q32 6 54 -17q24 -24 18 -56q-4 -21 -33 -50l-191 -190q-28 -28 -57 -28q-28 0 -56 28l-192 190
q-27 28 -32 50q-7 32 17 56q22 23 54 17q22 -6 50 -34z" />
    <glyph glyph-name="uni01D1" unicode="&#x1d1;" horiz-adv-x="1335" 
d="M668 1470q219 0 364 -143q42 -42 68.5 -85t43 -87t24.5 -112.5t10 -134t2 -179.5t-2 -179.5t-10 -134t-24.5 -112.5t-43 -87t-68.5 -85q-145 -143 -364 -143q-220 0 -365 143q-42 42 -68.5 85t-42.5 86.5t-24 113t-10 134.5t-2 179t2 179t10 134.5t24 113t42.5 86.5
t68.5 85q145 143 365 143zM668 127q151 0 252 104q66 67 84 164t18 334t-18 334t-84 164q-101 104 -252 104t-252 -104q-66 -67 -84.5 -164.5t-18.5 -333.5t18.5 -333.5t84.5 -164.5q101 -104 252 -104zM509 1886l159 -159l158 159q28 28 51 34q32 6 54 -17q23 -23 17 -56
q-4 -21 -33 -50l-191 -190q-28 -28 -56 -28q-29 0 -57 28l-191 190q-29 29 -33 50q-7 33 17 56q22 24 55 17q22 -6 50 -34z" />
    <glyph glyph-name="uni01D2" unicode="&#x1d2;" 
d="M545 121q109 0 182 73q48 48 65 126.5t17 183.5t-17 183t-65 126q-74 74 -182 74q-109 0 -183 -74q-48 -48 -64.5 -125.5t-16.5 -183.5t16.5 -184t64.5 -126q73 -73 183 -73zM545 1020q175 0 290 -115q72 -73 97.5 -170t25.5 -231q0 -133 -25.5 -231t-97.5 -171
q-114 -114 -290 -114t-290 114q-72 73 -98 171t-26 231t26 230t98 171q115 115 290 115zM386 1503l159 -158l158 158q28 28 51 34q32 6 54 -17q24 -24 17 -56q-5 -22 -32 -50l-192 -190q-28 -28 -56 -28q-29 0 -57 28l-191 190q-29 29 -33 50q-6 32 18 56q22 23 54 17
q22 -6 50 -34z" />
    <glyph glyph-name="uni01D3" unicode="&#x1d3;" horiz-adv-x="1400" 
d="M1211 481q0 -217 -144.5 -355t-367.5 -138t-366.5 138t-143.5 355v879q0 50 15 74q20 32 64 32q45 0 65 -32q14 -22 14 -74v-866q0 -166 96 -266.5t256 -100.5t257.5 100.5t97.5 266.5v866q0 52 14 74q20 32 65 32q44 0 64 -32q14 -22 14 -74v-879zM541 1886l158 -159
l159 159q28 28 50 34q33 7 55 -17q23 -23 17 -56q-4 -21 -33 -50l-191 -190q-28 -28 -57 -28q-28 0 -56 28l-191 190q-29 29 -33 50q-7 33 17 56q22 23 54 17q23 -6 51 -34z" />
    <glyph glyph-name="uni01D4" unicode="&#x1d4;" horiz-adv-x="1157" 
d="M174 364v551q0 47 13 69q20 32 62 32q43 0 61 -32q14 -24 14 -69v-526q0 -132 64.5 -200t181.5 -68q118 0 185 69t67 199v526q0 45 14 69q20 32 61 32t61 -32q14 -24 14 -69v-823q0 -45 -14 -68q-20 -32 -61 -32t-61 32q-14 23 -14 68v19q-111 -123 -282 -123
q-165 0 -261 94q-105 102 -105 282zM413 1503l158 -158l159 158q28 28 50 34q33 7 55 -17q23 -24 17 -56q-4 -21 -33 -50l-191 -190q-28 -28 -57 -28q-28 0 -56 28l-191 190q-29 29 -33 50q-7 32 17 56q22 23 54 17q23 -6 51 -34z" />
    <glyph glyph-name="uni01D5" unicode="&#x1d5;" horiz-adv-x="1400" 
d="M1211 481q0 -217 -144.5 -355t-367.5 -138t-366.5 138t-143.5 355v879q0 50 15 74q20 32 64 32q45 0 65 -32q14 -22 14 -74v-866q0 -166 96 -266.5t256 -100.5t257.5 100.5t97.5 266.5v866q0 52 14 74q20 32 65 32q44 0 64 -32q14 -22 14 -74v-879zM922 1917h-445
q-40 0 -59 11q-27 17 -27 51q0 35 27 52q19 11 59 11h445q40 0 59 -11q27 -17 27 -52q0 -34 -27 -51q-19 -11 -59 -11zM388 1704q0 38 27 65.5t65 27.5t65.5 -27.5t27.5 -65.5t-27.5 -65t-65.5 -27t-65 27t-27 65zM825 1704q0 38 27.5 65.5t65.5 27.5t65.5 -27.5t27.5 -65.5
t-27.5 -65t-65.5 -27t-65.5 27t-27.5 65z" />
    <glyph glyph-name="uni01D6" unicode="&#x1d6;" horiz-adv-x="1157" 
d="M174 364v551q0 47 13 69q20 32 62 32q43 0 61 -32q14 -24 14 -69v-526q0 -132 64.5 -200t181.5 -68q118 0 185 69t67 199v526q0 45 14 69q20 32 61 32t61 -32q14 -24 14 -69v-823q0 -45 -14 -68q-20 -32 -61 -32t-61 32q-14 23 -14 68v19q-111 -123 -282 -123
q-165 0 -261 94q-105 102 -105 282zM794 1548h-445q-38 0 -59 12q-27 17 -27 51t27 51q19 11 59 11h445q40 0 59 -11q27 -17 27 -51t-27 -51q-21 -12 -59 -12zM260 1320q0 38 27 65.5t65 27.5t65.5 -27.5t27.5 -65.5t-27.5 -65t-65.5 -27t-65 27t-27 65zM697 1320
q0 38 27.5 65.5t65.5 27.5t65.5 -27.5t27.5 -65.5t-27.5 -65t-65.5 -27t-65.5 27t-27.5 65z" />
    <glyph glyph-name="uni01D7" unicode="&#x1d7;" horiz-adv-x="1400" 
d="M1211 481q0 -217 -144.5 -355t-367.5 -138t-366.5 138t-143.5 355v879q0 50 15 74q20 32 64 32q45 0 65 -32q14 -22 14 -74v-866q0 -166 96 -266.5t256 -100.5t257.5 100.5t97.5 266.5v866q0 52 14 74q20 32 65 32q44 0 64 -32q14 -22 14 -74v-879zM662 2021l104 167
q19 30 34 42q18 13 37 13q18 0 36 -12q36 -21 34 -58q-1 -22 -24 -58l-105 -167q-19 -30 -34 -42q-18 -13 -36 -13q-19 0 -37 12q-36 21 -34 58q1 20 25 58zM388 1704q0 38 27 65.5t65 27.5t65.5 -27.5t27.5 -65.5t-27.5 -65t-65.5 -27t-65 27t-27 65zM825 1704
q0 38 27.5 65.5t65.5 27.5t65.5 -27.5t27.5 -65.5t-27.5 -65t-65.5 -27t-65.5 27t-27.5 65z" />
    <glyph glyph-name="uni01D8" unicode="&#x1d8;" horiz-adv-x="1157" 
d="M534 1646l104 166q19 30 34 42q18 13 37 13q18 0 36 -12q36 -21 34 -58q-1 -22 -24 -58l-105 -167q-19 -30 -34 -42q-16 -12 -36 -12t-37 11q-36 21 -34 58q1 21 25 59zM174 364v551q0 47 13 69q20 32 62 32q43 0 61 -32q14 -24 14 -69v-526q0 -132 64.5 -200t181.5 -68
q118 0 185 69t67 199v526q0 45 14 69q20 32 61 32t61 -32q14 -24 14 -69v-823q0 -45 -14 -68q-20 -32 -61 -32t-61 32q-14 23 -14 68v19q-111 -123 -282 -123q-165 0 -261 94q-105 102 -105 282zM260 1320q0 38 27 65.5t65 27.5t65.5 -27.5t27.5 -65.5t-27.5 -65t-65.5 -27
t-65 27t-27 65zM697 1320q0 38 27.5 65.5t65.5 27.5t65.5 -27.5t27.5 -65.5t-27.5 -65t-65.5 -27t-65.5 27t-27.5 65z" />
    <glyph glyph-name="uni01D9" unicode="&#x1d9;" horiz-adv-x="1400" 
d="M1211 481q0 -217 -144.5 -355t-367.5 -138t-366.5 138t-143.5 355v879q0 50 15 74q20 32 64 32q45 0 65 -32q14 -22 14 -74v-866q0 -166 96 -266.5t256 -100.5t257.5 100.5t97.5 266.5v866q0 52 14 74q20 32 65 32q44 0 64 -32q14 -22 14 -74v-879zM541 2199l158 -159
l159 159q27 27 50 33q33 7 55 -17q23 -23 17 -55q-4 -22 -33 -51l-191 -190q-28 -28 -57 -28q-28 0 -56 28l-191 190q-28 29 -33 51q-6 32 17 55q22 23 54 17q25 -7 51 -33zM388 1704q0 38 27 65.5t65 27.5t65.5 -27.5t27.5 -65.5t-27.5 -65t-65.5 -27t-65 27t-27 65z
M825 1704q0 38 27.5 65.5t65.5 27.5t65.5 -27.5t27.5 -65.5t-27.5 -65t-65.5 -27t-65.5 27t-27.5 65z" />
    <glyph glyph-name="uni01DA" unicode="&#x1da;" horiz-adv-x="1157" 
d="M413 1815l158 -159l159 159q27 27 50 33q33 7 55 -17q23 -23 17 -55q-4 -23 -33 -51l-191 -190q-28 -28 -57 -28q-28 0 -56 28l-191 190q-28 28 -33 51q-6 32 17 55q22 23 54 17q25 -7 51 -33zM174 364v551q0 47 13 69q20 32 62 32q43 0 61 -32q14 -24 14 -69v-526
q0 -132 64.5 -200t181.5 -68q118 0 185 69t67 199v526q0 45 14 69q20 32 61 32t61 -32q14 -24 14 -69v-823q0 -45 -14 -68q-20 -32 -61 -32t-61 32q-14 23 -14 68v19q-111 -123 -282 -123q-165 0 -261 94q-105 102 -105 282zM260 1320q0 38 27 65.5t65 27.5t65.5 -27.5
t27.5 -65.5t-27.5 -65t-65.5 -27t-65 27t-27 65zM697 1320q0 38 27.5 65.5t65.5 27.5t65.5 -27.5t27.5 -65.5t-27.5 -65t-65.5 -27t-65.5 27t-27.5 65z" />
    <glyph glyph-name="uni01DB" unicode="&#x1db;" horiz-adv-x="1400" 
d="M1211 481q0 -217 -144.5 -355t-367.5 -138t-366.5 138t-143.5 355v879q0 50 15 74q20 32 64 32q45 0 65 -32q14 -22 14 -74v-866q0 -166 96 -266.5t256 -100.5t257.5 100.5t97.5 266.5v866q0 52 14 74q20 32 65 32q44 0 64 -32q14 -22 14 -74v-879zM489 2172q0 39 35 59
q20 12 39 12q23 0 39.5 -13.5t35.5 -44.5l99 -159q26 -43 26 -63q0 -39 -35 -59q-20 -12 -39 -12q-23 0 -39.5 13.5t-35.5 44.5l-99 158q-26 43 -26 64zM388 1704q0 38 27 65.5t65 27.5t65.5 -27.5t27.5 -65.5t-27.5 -65t-65.5 -27t-65 27t-27 65zM825 1704q0 38 27.5 65.5
t65.5 27.5t65.5 -27.5t27.5 -65.5t-27.5 -65t-65.5 -27t-65.5 27t-27.5 65z" />
    <glyph glyph-name="uni01DC" unicode="&#x1dc;" horiz-adv-x="1157" 
d="M174 364v551q0 47 13 69q20 32 62 32q43 0 61 -32q14 -24 14 -69v-526q0 -132 64.5 -200t181.5 -68q118 0 185 69t67 199v526q0 45 14 69q20 32 61 32t61 -32q14 -24 14 -69v-823q0 -45 -14 -68q-20 -32 -61 -32t-61 32q-14 23 -14 68v19q-111 -123 -282 -123
q-165 0 -261 94q-105 102 -105 282zM365 1792q0 39 34 59q19 12 39 12q23 0 39.5 -13.5t35.5 -44.5l99 -158q26 -43 26 -64q0 -39 -35 -59q-19 -12 -39 -12q-23 0 -39.5 13.5t-35.5 44.5l-99 159q-25 41 -25 63zM260 1320q0 38 27 65.5t65 27.5t65.5 -27.5t27.5 -65.5
t-27.5 -65t-65.5 -27t-65 27t-27 65zM697 1320q0 38 27.5 65.5t65.5 27.5t65.5 -27.5t27.5 -65.5t-27.5 -65t-65.5 -27t-65.5 27t-27.5 65z" />
    <glyph glyph-name="uni01DD" unicode="&#x1dd;" horiz-adv-x="1083" 
d="M211 542h595q0 166 -77 257.5t-222 91.5q-130 0 -216 -73q-43 -36 -70 -36q-24 0 -43.5 20t-19.5 45q0 50 104 115q97 58 251 58q207 0 324 -128.5t117 -387.5q0 -247 -111 -381.5t-304 -134.5q-190 0 -301 127t-113 340q0 47 20 67t66 20zM806 429h-535q4 -97 32 -164
q29 -70 91.5 -110t144.5 -40t144.5 40.5t90.5 109.5q28 67 32 164z" />
    <glyph glyph-name="uni01DE" unicode="&#x1de;" horiz-adv-x="1251" 
d="M63 121l474 1263q14 38 30 57q23 25 59 25q35 0 58 -25q19 -22 31 -57l473 -1263q8 -24 11.5 -39t0 -33.5t-18.5 -33.5q-23 -23 -58 -23q-22 0 -40 13q-20 16 -37 63l-97 262h-648l-96 -262q-17 -46 -38 -63q-18 -13 -40 -13q-34 0 -57 23q-15 15 -18.5 33.5t0 33.5
t11.5 39zM626 1215l-276 -750h550zM848 1917h-445q-40 0 -59 11q-27 17 -27 51q0 35 27 52q19 11 59 11h445q40 0 59 -11q27 -17 27 -52q0 -34 -27 -51q-19 -11 -59 -11zM314 1704q0 38 27.5 65.5t65.5 27.5t65.5 -27.5t27.5 -65.5t-27.5 -65t-65.5 -27t-65.5 27t-27.5 65z
M752 1704q0 38 27 65.5t65 27.5t65.5 -27.5t27.5 -65.5t-27.5 -65t-65.5 -27t-65 27t-27 65z" />
    <glyph glyph-name="uni01DF" unicode="&#x1df;" horiz-adv-x="1078" 
d="M101 286q0 134 93 213t256 79h305v81q0 118 -59 175.5t-189 57.5q-74 0 -124.5 -20.5t-103.5 -68.5q-31 -27 -63 -27q-28 0 -45 19q-18 21 -18 47q0 49 96 112q105 66 259 66q195 0 295 -86t100 -251v-591q0 -47 -13 -68q-20 -32 -62 -32q-41 0 -61 32q-13 21 -13 68v2
q-61 -59 -125.5 -82.5t-163.5 -23.5q-104 0 -172 21.5t-115 70.5q-77 80 -77 206zM248 287q0 -173 232 -173q74 0 126.5 13.5t95.5 54.5q53 51 53 175v108h-289q-108 0 -163 -45.5t-55 -132.5zM740 1548h-444q-38 0 -59 12q-27 17 -27 51t27 51q19 11 59 11h444q41 0 60 -11
q26 -17 26 -51t-26 -51q-21 -12 -60 -12zM207 1320q0 38 27 65.5t65 27.5t65.5 -27.5t27.5 -65.5t-27.5 -65t-65.5 -27t-65 27t-27 65zM644 1320q0 38 27 65.5t65 27.5t65.5 -27.5t27.5 -65.5t-27.5 -65t-65.5 -27t-65 27t-27 65z" />
    <glyph glyph-name="uni01E0" unicode="&#x1e0;" horiz-adv-x="1251" 
d="M63 121l474 1263q14 38 30 57q23 25 59 25q35 0 58 -25q19 -22 31 -57l473 -1263q8 -24 11.5 -39t0 -33.5t-18.5 -33.5q-23 -23 -58 -23q-22 0 -40 13q-20 16 -37 63l-97 262h-648l-96 -262q-17 -46 -38 -63q-18 -13 -40 -13q-34 0 -57 23q-15 15 -18.5 33.5t0 33.5
t11.5 39zM626 1215l-276 -750h550zM848 1917h-445q-40 0 -59 11q-27 17 -27 51q0 35 27 52q19 11 59 11h445q40 0 59 -11q27 -17 27 -52q0 -34 -27 -51q-19 -11 -59 -11zM534 1717q0 38 27 65t65 27t65 -27t27 -65t-27 -65t-65 -27t-65 27t-27 65z" />
    <glyph glyph-name="uni01E1" unicode="&#x1e1;" horiz-adv-x="1078" 
d="M101 286q0 134 93 213t256 79h305v81q0 118 -59 175.5t-189 57.5q-74 0 -124.5 -20.5t-103.5 -68.5q-31 -27 -63 -27q-28 0 -45 19q-18 21 -18 47q0 49 96 112q105 66 259 66q195 0 295 -86t100 -251v-591q0 -47 -13 -68q-20 -32 -62 -32q-41 0 -61 32q-13 21 -13 68v2
q-61 -59 -125.5 -82.5t-163.5 -23.5q-104 0 -172 21.5t-115 70.5q-77 80 -77 206zM248 287q0 -173 232 -173q74 0 126.5 13.5t95.5 54.5q53 51 53 175v108h-289q-108 0 -163 -45.5t-55 -132.5zM740 1548h-444q-38 0 -59 12q-27 17 -27 51t27 51q19 11 59 11h444q41 0 60 -11
q26 -17 26 -51t-26 -51q-21 -12 -60 -12zM426 1335q0 38 27 65t65 27t65 -27t27 -65t-27 -65t-65 -27t-65 27t-27 65z" />
    <glyph glyph-name="uni01E2" unicode="&#x1e2;" horiz-adv-x="1847" 
d="M829 345h-485l-143 -288q-20 -41 -41 -55q-15 -10 -35 -10q-19 0 -35 8q-37 18 -40 55q-2 22 20 68l621 1244q21 43 52 68q30 23 77 23h826q47 0 67 -12q30 -20 30 -57q0 -38 -30 -58q-20 -12 -67 -12h-659v-514h547q48 0 68 -12q29 -19 29 -58q0 -38 -29 -57
q-20 -12 -68 -12h-547v-527h659q47 0 67 -12q30 -20 30 -57q0 -38 -30 -58q-20 -12 -67 -12h-721q-52 0 -74 22t-22 73v250zM829 480v837l-417 -837h417zM1498 1626h-444q-41 0 -60 11q-26 17 -26 52q0 34 26 51q19 11 60 11h444q41 0 60 -11q26 -17 26 -51q0 -35 -26 -52
q-19 -11 -60 -11z" />
    <glyph glyph-name="uni01E3" unicode="&#x1e3;" horiz-adv-x="1708" 
d="M1195 -12q-251 0 -360 175q-68 -97 -153 -136t-217 -39q-104 0 -172 21.5t-115 70.5q-77 80 -77 206q0 134 93 213t256 79h305v81q0 118 -59 175.5t-189 57.5q-74 0 -124.5 -20.5t-103.5 -68.5q-31 -27 -63 -27q-28 0 -45 19q-18 21 -18 47q0 49 96 112q105 66 259 66
q260 0 346 -157q108 157 315 157q190 0 301 -127t113 -340q0 -48 -20 -68q-19 -19 -66 -19h-595q0 -166 77 -257.5t222 -91.5q131 0 216 72q43 36 70 36q24 0 43.5 -19.5t19.5 -44.5q0 -50 -104 -115q-97 -58 -251 -58zM902 579h535q-4 96 -32 163q-29 70 -91.5 110.5
t-144.5 40.5t-144.5 -41t-90.5 -110q-28 -67 -32 -163zM248 287q0 -173 232 -173q74 0 126.5 13.5t95.5 54.5q53 51 53 175v108h-289q-108 0 -163 -45.5t-55 -132.5zM1074 1257h-444q-39 0 -60 12q-26 17 -26 51t26 51q19 11 60 11h444q41 0 60 -11q26 -17 26 -51t-26 -51
q-21 -12 -60 -12z" />
    <glyph glyph-name="Gcaron" unicode="&#x1e6;" horiz-adv-x="1331" 
d="M313 729q0 -236 18.5 -333.5t84.5 -164.5q102 -104 252 -104q152 0 253 101q60 61 80 143.5t20 244.5h-269q-46 0 -68 13q-30 20 -30 57t30 57q22 13 68 13h326q52 0 74 -22t22 -74v-26q0 -207 -28.5 -311t-116.5 -191q-144 -144 -361 -144q-219 0 -364 143
q-52 52 -81.5 102t-44.5 126.5t-18.5 151.5t-3.5 218q0 114 2 179.5t10 134t24.5 112.5t43 87t68.5 85q141 143 363 143q247 0 391 -175q43 -52 68 -112.5t25 -99.5q0 -36 -21 -57q-20 -20 -52 -20q-30 0 -48 16q-22 20 -37 65q-39 117 -123 180.5t-204 63.5
q-149 0 -250 -104q-67 -68 -85 -165.5t-18 -332.5zM509 1886l159 -159l158 159q28 28 51 34q32 6 54 -17q23 -23 17 -56q-4 -21 -33 -50l-191 -190q-28 -28 -56 -28q-29 0 -57 28l-191 190q-29 29 -33 50q-7 33 17 56q22 24 55 17q22 -6 50 -34z" />
    <glyph glyph-name="gcaron" unicode="&#x1e7;" horiz-adv-x="1119" 
d="M505 -333q139 0 209 85.5t70 222.5v161q-57 -74 -126 -104t-158 -30q-75 0 -140 24.5t-106 65.5q-123 123 -123 420t123 420q40 40 106 64t142 24q91 0 157.5 -28t124.5 -103v26q0 46 14 69q20 32 61 32q42 0 62 -32q13 -21 13 -69v-945q0 -191 -114.5 -311.5
t-311.5 -120.5q-133 0 -224 49q-39 21 -73 51t-34 60t20 49t43 19q26 0 74 -38q76 -61 191 -61zM782 512q0 63 -5 111.5t-20.5 100t-42 85.5t-73 56t-109.5 22t-110 -22t-73.5 -56t-42 -85.5t-20.5 -100.5t-5 -112t5 -111.5t20.5 -100t42 -85.5t73.5 -55.5t110 -21.5
t109.5 22t73 55.5t42 85.5t20.5 100.5t5 111.5zM374 1503l158 -158l159 158q28 28 50 34q33 7 55 -17q24 -24 17 -56q-4 -21 -33 -50l-191 -190q-28 -28 -57 -28q-28 0 -56 28l-191 190q-29 29 -33 50q-6 32 17 56q22 24 55 17q22 -6 50 -34z" />
    <glyph glyph-name="uni01E8" unicode="&#x1e8;" horiz-adv-x="1330" 
d="M369 1360v-726l646 784q39 48 72 48q29 0 51 -18q26 -22 26 -56q0 -27 -35 -69l-346 -421l438 -768q23 -42 23 -71q0 -38 -40 -60q-19 -11 -40 -11q-27 0 -45 16.5t-35 47.5l-410 728l-305 -366v-320q0 -49 -15 -73q-21 -33 -64 -33q-44 0 -65 33q-14 22 -14 73v1262
q0 52 14 74q20 32 65 32q44 0 64 -32q15 -24 15 -74zM550 1886l159 -159l158 159q28 28 51 34q32 6 54 -17q24 -23 17 -56q-4 -21 -33 -50l-191 -190q-28 -28 -56 -28q-29 0 -57 28l-191 190q-29 29 -33 50q-6 33 17 56q22 24 55 17q22 -6 50 -34z" />
    <glyph glyph-name="uni01E9" unicode="&#x1e9;" horiz-adv-x="1052" 
d="M972 62q0 -39 -35 -59q-18 -11 -39 -11q-23 0 -39 13t-36 44l-293 464l-195 -222v-199q0 -47 -13 -68q-20 -32 -62 -32q-41 0 -61 32q-14 23 -14 68v1274q0 46 14 69q19 31 61 31q43 0 62 -31q13 -21 13 -69v-882l431 492q22 25 37 34.5t34 9.5q24 0 43 -16
q24 -21 24 -50q0 -27 -36 -68l-234 -268l312 -492q26 -43 26 -64zM106 1913l159 -159l159 159q28 28 50 34q31 6 54 -18q24 -24 18 -55q-4 -21 -33 -50l-191 -191q-27 -27 -57 -27q-29 0 -56 27l-192 191q-27 28 -32 50q-6 32 17 55q23 24 54 18q22 -6 50 -34z" />
    <glyph glyph-name="uni01EA" unicode="&#x1ea;" horiz-adv-x="1335" 
d="M668 1470q219 0 364 -143q42 -42 68.5 -85t43 -87t24.5 -112.5t10 -134t2 -179.5t-2 -179.5t-10 -134t-24.5 -112.5t-43 -87t-68.5 -85q-145 -143 -364 -143q-220 0 -365 143q-42 42 -68.5 85t-42.5 86.5t-24 113t-10 134.5t-2 179t2 179t10 134.5t24 113t42.5 86.5
t68.5 85q145 143 365 143zM668 127q151 0 252 104q66 67 84 164t18 334t-18 334t-84 164q-101 104 -252 104t-252 -104q-66 -67 -84.5 -164.5t-18.5 -333.5t18.5 -333.5t84.5 -164.5q101 -104 252 -104zM493 -346l104 167q19 30 34 42q17 12 37 12t37 -11q35 -20 33 -59
q-1 -22 -24 -58l-105 -167q-19 -30 -34 -42q-16 -12 -36 -12q-21 0 -37 11q-36 21 -34 59q1 20 25 58z" />
    <glyph glyph-name="uni01EB" unicode="&#x1eb;" 
d="M545 121q109 0 182 73q48 48 65 126.5t17 183.5t-17 183t-65 126q-74 74 -182 74q-109 0 -183 -74q-48 -48 -64.5 -125.5t-16.5 -183.5t16.5 -184t64.5 -126q73 -73 183 -73zM545 1020q175 0 290 -115q72 -73 97.5 -170t25.5 -231q0 -133 -25.5 -231t-97.5 -171
q-114 -114 -290 -114t-290 114q-72 73 -98 171t-26 231t26 230t98 171q115 115 290 115zM357 -346l105 167q19 30 34 42q16 12 36 12t37 -11q36 -21 34 -59q-1 -22 -24 -58l-105 -167q-19 -30 -34 -42q-16 -12 -37 -12q-19 0 -36 11q-36 21 -34 59q1 22 24 58z" />
    <glyph glyph-name="uni01EC" unicode="&#x1ec;" horiz-adv-x="1335" 
d="M668 1470q219 0 364 -143q42 -42 68.5 -85t43 -87t24.5 -112.5t10 -134t2 -179.5t-2 -179.5t-10 -134t-24.5 -112.5t-43 -87t-68.5 -85q-145 -143 -364 -143q-220 0 -365 143q-42 42 -68.5 85t-42.5 86.5t-24 113t-10 134.5t-2 179t2 179t10 134.5t24 113t42.5 86.5
t68.5 85q145 143 365 143zM668 127q151 0 252 104q66 67 84 164t18 334t-18 334t-84 164q-101 104 -252 104t-252 -104q-66 -67 -84.5 -164.5t-18.5 -333.5t18.5 -333.5t84.5 -164.5q101 -104 252 -104zM890 1626h-445q-40 0 -59 11q-27 17 -27 52q0 34 27 51q19 11 59 11
h445q40 0 59 -11q27 -17 27 -51q0 -35 -27 -52q-19 -11 -59 -11zM493 -346l104 167q19 30 34 42q17 12 37 12t37 -11q35 -20 33 -59q-1 -22 -24 -58l-105 -167q-19 -30 -34 -42q-16 -12 -36 -12q-21 0 -37 11q-36 21 -34 59q1 20 25 58z" />
    <glyph glyph-name="uni01ED" unicode="&#x1ed;" 
d="M545 121q109 0 182 73q48 48 65 126.5t17 183.5t-17 183t-65 126q-74 74 -182 74q-109 0 -183 -74q-48 -48 -64.5 -125.5t-16.5 -183.5t16.5 -184t64.5 -126q73 -73 183 -73zM545 1020q175 0 290 -115q72 -73 97.5 -170t25.5 -231q0 -133 -25.5 -231t-97.5 -171
q-114 -114 -290 -114t-290 114q-72 73 -98 171t-26 231t26 230t98 171q115 115 290 115zM767 1257h-444q-39 0 -60 12q-26 17 -26 51t26 51q19 11 60 11h444q40 0 59 -11q27 -17 27 -51t-27 -51q-21 -12 -59 -12zM357 -346l105 167q19 30 34 42q16 12 36 12t37 -11
q36 -21 34 -59q-1 -22 -24 -58l-105 -167q-19 -30 -34 -42q-16 -12 -37 -12q-19 0 -36 11q-36 21 -34 59q1 22 24 58z" />
    <glyph glyph-name="uni01F0" unicode="&#x1f0;" horiz-adv-x="530" 
d="M190 -176v1091q0 46 14 69q20 32 61 32q42 0 62 -32q13 -21 13 -69v-1096q0 -118 -66.5 -194.5t-189.5 -76.5h-27q-45 0 -66 13q-28 18 -28 52t28 52q19 12 66 12q133 0 133 147zM106 1503l159 -158l159 158q28 28 50 34q32 6 54 -17q24 -24 18 -56q-4 -21 -33 -50
l-191 -190q-28 -28 -57 -28q-28 0 -56 28l-192 190q-27 28 -32 50q-7 32 17 56q22 23 54 17q22 -6 50 -34z" />
    <glyph glyph-name="uni01F4" unicode="&#x1f4;" horiz-adv-x="1331" 
d="M313 729q0 -236 18.5 -333.5t84.5 -164.5q102 -104 252 -104q152 0 253 101q60 61 80 143.5t20 244.5h-269q-46 0 -68 13q-30 20 -30 57t30 57q22 13 68 13h326q52 0 74 -22t22 -74v-26q0 -207 -28.5 -311t-116.5 -191q-144 -144 -361 -144q-219 0 -364 143
q-52 52 -81.5 102t-44.5 126.5t-18.5 151.5t-3.5 218q0 114 2 179.5t10 134t24.5 112.5t43 87t68.5 85q141 143 363 143q247 0 391 -175q43 -52 68 -112.5t25 -99.5q0 -36 -21 -57q-20 -20 -52 -20q-30 0 -48 16q-22 20 -37 65q-39 117 -123 180.5t-204 63.5
q-149 0 -250 -104q-67 -68 -85 -165.5t-18 -332.5zM628 1710l104 167q19 30 34 42q16 12 37 12t37 -11q35 -20 33 -58q-1 -23 -24 -59l-105 -167q-19 -32 -33 -42q-17 -12 -37 -12t-37 11q-36 21 -34 59q1 20 25 58z" />
    <glyph glyph-name="uni01F5" unicode="&#x1f5;" horiz-adv-x="1119" 
d="M505 -333q139 0 209 85.5t70 222.5v161q-57 -74 -126 -104t-158 -30q-75 0 -140 24.5t-106 65.5q-123 123 -123 420t123 420q40 40 106 64t142 24q91 0 157.5 -28t124.5 -103v26q0 46 14 69q20 32 61 32q42 0 62 -32q13 -21 13 -69v-945q0 -191 -114.5 -311.5
t-311.5 -120.5q-133 0 -224 49q-39 21 -73 51t-34 60t20 49t43 19q26 0 74 -38q76 -61 191 -61zM782 512q0 63 -5 111.5t-20.5 100t-42 85.5t-73 56t-109.5 22t-110 -22t-73.5 -56t-42 -85.5t-20.5 -100.5t-5 -112t5 -111.5t20.5 -100t42 -85.5t73.5 -55.5t110 -21.5
t109.5 22t73 55.5t42 85.5t20.5 100.5t5 111.5zM495 1334l104 167q19 30 34 42q17 12 37 12t37 -11q35 -20 33 -58q-1 -23 -24 -59l-105 -166q-19 -32 -33 -42q-18 -13 -37 -13t-37 12q-36 21 -34 58q1 20 25 58z" />
    <glyph glyph-name="uni01F8" unicode="&#x1f8;" horiz-adv-x="1501" 
d="M1290 1360v-1265q0 -55 -24 -79t-60 -24q-27 0 -47 15t-42 47l-748 1106v-1062q0 -49 -15 -73q-21 -33 -64 -33q-44 0 -65 33q-14 22 -14 73v1265q0 54 25 79q22 24 59 24q27 0 46.5 -15t42.5 -47l749 -1106v1062q0 52 14 74q20 32 64 32q45 0 65 -32q14 -22 14 -74z
M538 1861q0 39 34 59q18 11 39 11q23 0 39.5 -13t35.5 -44l99 -159q26 -43 26 -63q0 -40 -35 -60q-18 -11 -39 -11q-23 0 -39 13t-35 44l-100 159q-25 41 -25 64z" />
    <glyph glyph-name="uni01F9" unicode="&#x1f9;" horiz-adv-x="1157" 
d="M983 644v-552q0 -46 -13 -68q-20 -32 -62 -32q-43 0 -61 32q-13 22 -13 68v526q0 132 -65 200.5t-182 68.5q-118 0 -185 -69.5t-67 -199.5v-526q0 -46 -13 -68q-20 -32 -62 -32q-41 0 -61 32q-14 24 -14 68v823q0 46 14 69q20 32 61 32q42 0 62 -32q13 -21 13 -69v-18
q111 123 282 123q166 0 262 -94q104 -101 104 -282zM375 1481q0 39 35 59q18 11 39 11q23 0 39 -13t35 -44l100 -159q25 -41 25 -63q0 -40 -35 -60q-18 -11 -39 -11q-23 0 -39 13t-35 44l-100 159q-25 41 -25 64z" />
    <glyph glyph-name="Aringacute" unicode="&#x1fa;" horiz-adv-x="1251" 
d="M63 121l446 1191q-58 31 -92.5 88t-34.5 126q0 100 71 171t172 71t171.5 -71t70.5 -171q0 -68 -34 -125.5t-92 -88.5l447 -1191q8 -24 11.5 -39t0 -33.5t-18.5 -33.5q-23 -23 -58 -23q-22 0 -40 13q-20 16 -37 63l-97 262h-648l-96 -262q-17 -46 -38 -63q-18 -13 -40 -13
q-34 0 -57 23q-15 15 -18.5 33.5t0 33.5t11.5 39zM626 1215l-276 -750h550zM483 1526q0 -58 41.5 -100t100.5 -42q58 0 99.5 41.5t41.5 100.5q0 58 -41 99.5t-100 41.5t-100.5 -41.5t-41.5 -99.5zM800 1976l-119 -117q-28 -28 -50 -34q-32 -6 -54 17q-24 24 -18 55
q5 22 33 51l119 117q28 28 50 34q32 6 54 -17q24 -24 18 -56q-4 -21 -33 -50z" />
    <glyph glyph-name="aringacute" unicode="&#x1fb;" horiz-adv-x="1078" 
d="M693 1858l-119 -118q-28 -28 -50 -34q-32 -6 -54 17q-24 24 -17 56q5 23 32 50l119 118q27 27 50 33q33 7 55 -17q23 -23 17 -55q-4 -21 -33 -50zM101 286q0 134 93 213t256 79h305v81q0 118 -59 175.5t-189 57.5q-74 0 -124.5 -20.5t-103.5 -68.5q-31 -27 -63 -27
q-28 0 -45 19q-18 21 -18 47q0 49 96 112q105 66 259 66q195 0 295 -86t100 -251v-591q0 -47 -13 -68q-20 -32 -62 -32q-41 0 -61 32q-13 21 -13 68v2q-61 -59 -125.5 -82.5t-163.5 -23.5q-104 0 -172 21.5t-115 70.5q-77 80 -77 206zM248 287q0 -173 232 -173
q74 0 126.5 13.5t95.5 54.5q53 51 53 175v108h-289q-108 0 -163 -45.5t-55 -132.5zM275 1407q0 101 71.5 172t171.5 71t171.5 -71t71.5 -172t-71.5 -172t-171.5 -71t-171.5 71t-71.5 172zM377 1407q0 -59 41.5 -100t99.5 -41t99.5 41t41.5 100t-41.5 100t-99.5 41t-99.5 -41
t-41.5 -100z" />
    <glyph glyph-name="AEacute" unicode="&#x1fc;" horiz-adv-x="1847" 
d="M829 345h-485l-143 -288q-20 -41 -41 -55q-15 -10 -35 -10q-19 0 -35 8q-37 18 -40 55q-2 22 20 68l621 1244q21 43 52 68q30 23 77 23h826q47 0 67 -12q30 -20 30 -57q0 -38 -30 -58q-20 -12 -67 -12h-659v-514h547q48 0 68 -12q29 -19 29 -58q0 -38 -29 -57
q-20 -12 -68 -12h-547v-527h659q47 0 67 -12q30 -20 30 -57q0 -38 -30 -58q-20 -12 -67 -12h-721q-52 0 -74 22t-22 73v250zM829 480v837l-417 -837h417zM1236 1710l104 167q19 30 34 42q16 12 37 12t37 -11q36 -21 34 -58q-1 -21 -25 -59l-104 -167q-19 -30 -34 -42
q-17 -12 -37 -12t-37 11q-36 21 -34 59q1 20 25 58z" />
    <glyph glyph-name="aeacute" unicode="&#x1fd;" horiz-adv-x="1708" 
d="M1195 -12q-251 0 -360 175q-68 -97 -153 -136t-217 -39q-104 0 -172 21.5t-115 70.5q-77 80 -77 206q0 134 93 213t256 79h305v81q0 118 -59 175.5t-189 57.5q-74 0 -124.5 -20.5t-103.5 -68.5q-31 -27 -63 -27q-28 0 -45 19q-18 21 -18 47q0 49 96 112q105 66 259 66
q260 0 346 -157q108 157 315 157q190 0 301 -127t113 -340q0 -48 -20 -68q-19 -19 -66 -19h-595q0 -166 77 -257.5t222 -91.5q131 0 216 72q43 36 70 36q24 0 43.5 -19.5t19.5 -44.5q0 -50 -104 -115q-97 -58 -251 -58zM902 579h535q-4 96 -32 163q-29 70 -91.5 110.5
t-144.5 40.5t-144.5 -41t-90.5 -110q-28 -67 -32 -163zM248 287q0 -173 232 -173q74 0 126.5 13.5t95.5 54.5q53 51 53 175v108h-289q-108 0 -163 -45.5t-55 -132.5zM814 1334l105 167q19 32 33 42q16 12 37 12t37 -11q36 -21 34 -58q-1 -21 -25 -59l-104 -166
q-19 -30 -34 -42q-18 -13 -37 -13t-37 12q-35 20 -33 58q1 22 24 58z" />
    <glyph glyph-name="Oslashacute" unicode="&#x1fe;" horiz-adv-x="1335" 
d="M255 22l53 106q-43 42 -70.5 86t-44 88.5t-24.5 113.5t-10.5 134.5t-2.5 178.5q0 114 2 179t10 134.5t24 113t42.5 86.5t68.5 85q145 143 365 143q141 0 252 -63l44 89q19 38 34 50q29 22 65 4t36 -54q0 -19 -19 -58l-54 -108q43 -43 70.5 -86.5t45 -88.5t25.5 -113
t10.5 -134.5t2.5 -178.5q0 -114 -2 -179.5t-10 -134t-24.5 -112.5t-43 -87t-68.5 -85q-145 -143 -364 -143q-144 0 -253 62l-43 -87q-18 -37 -35 -50q-29 -22 -65 -4q-35 17 -35 54q0 22 18 59zM390 279l475 995q-85 58 -197 58q-151 0 -253 -104q-66 -67 -84 -164.5
t-18 -334.5q0 -204 13.5 -295t63.5 -155zM668 126q151 0 252 104q66 67 84 164.5t18 334.5q0 204 -13.5 295.5t-63.5 155.5l-475 -996q85 -58 198 -58zM628 1710l104 167q19 30 34 42q16 12 37 12t37 -11q35 -20 33 -58q-1 -23 -24 -59l-105 -167q-19 -32 -33 -42
q-17 -12 -37 -12t-37 11q-36 21 -34 59q1 20 25 58z" />
    <glyph glyph-name="oslashacute" unicode="&#x1ff;" 
d="M545 1020q120 0 210 -53l54 92q22 39 48 46q20 5 40 -7q30 -17 28 -47q-1 -17 -19 -47l-64 -107q68 -73 92 -168t24 -225q0 -133 -25.5 -231t-97.5 -171q-114 -114 -290 -114q-121 0 -212 54l-55 -94q-22 -39 -49 -46q-20 -5 -40 7q-29 16 -27 47q1 19 18 47l66 110
q-67 72 -91 167t-24 224q0 133 26 230t98 171q115 115 290 115zM334 236l357 607q-66 44 -146 44q-109 0 -184 -75q-50 -50 -65 -125.5t-15 -185.5q0 -87 10 -151.5t43 -113.5zM756 772l-358 -607q66 -44 147 -44q108 0 183 75q50 50 65.5 126t15.5 185q0 87 -10 151.5
t-43 113.5zM507 1334l104 167q19 30 34 42q16 12 37 12q20 0 37 -11q36 -21 34 -58q-1 -21 -25 -59l-104 -166q-19 -30 -34 -42q-18 -13 -37 -13t-37 12q-36 21 -34 58q1 20 25 58z" />
    <glyph glyph-name="uni0200" unicode="&#x200;" horiz-adv-x="1251" 
d="M63 121l474 1263q14 38 30 57q23 25 59 25q35 0 58 -25q19 -22 31 -57l473 -1263q8 -24 11.5 -39t0 -33.5t-18.5 -33.5q-23 -23 -58 -23q-22 0 -40 13q-20 16 -37 63l-97 262h-648l-96 -262q-17 -46 -38 -63q-18 -13 -40 -13q-34 0 -57 23q-15 15 -18.5 33.5t0 33.5
t11.5 39zM626 1215l-276 -750h550zM715 1881l104 -167q24 -38 25 -58q2 -38 -34 -59q-16 -11 -37 -11t-37 12q-15 12 -34 42l-104 167q-24 38 -25 59q-2 37 34 58q16 11 37 11q20 0 37 -12q15 -12 34 -42zM377 1881l104 -167q24 -38 25 -58q2 -38 -34 -59q-17 -11 -37 -11
q-21 0 -37 12q-14 10 -33 42l-105 167q-23 36 -24 59q-2 38 33 58q16 11 37 11q20 0 37 -12q15 -12 34 -42z" />
    <glyph glyph-name="uni0201" unicode="&#x201;" horiz-adv-x="1078" 
d="M101 286q0 134 93 213t256 79h305v81q0 118 -59 175.5t-189 57.5q-74 0 -124.5 -20.5t-103.5 -68.5q-31 -27 -63 -27q-28 0 -45 19q-18 21 -18 47q0 49 96 112q105 66 259 66q195 0 295 -86t100 -251v-591q0 -47 -13 -68q-20 -32 -62 -32q-41 0 -61 32q-13 21 -13 68v2
q-61 -59 -125.5 -82.5t-163.5 -23.5q-104 0 -172 21.5t-115 70.5q-77 80 -77 206zM248 287q0 -173 232 -173q74 0 126.5 13.5t95.5 54.5q53 51 53 175v108h-289q-108 0 -163 -45.5t-55 -132.5zM591 1501l104 -167q24 -38 25 -58q2 -37 -34 -58q-18 -12 -37 -12t-37 13
q-14 10 -33 42l-105 166q-23 36 -24 59q-2 38 33 58q17 11 37 11t37 -12q15 -12 34 -42zM253 1501l104 -167q24 -38 25 -58q2 -37 -34 -58q-18 -12 -37 -12t-37 13q-14 10 -33 42l-105 166q-23 36 -24 59q-2 38 33 58q17 11 37 11t37 -12q15 -12 34 -42z" />
    <glyph glyph-name="uni0202" unicode="&#x202;" horiz-adv-x="1251" 
d="M63 121l474 1263q14 38 30 57q23 25 59 25q35 0 58 -25q19 -22 31 -57l473 -1263q8 -24 11.5 -39t0 -33.5t-18.5 -33.5q-23 -23 -58 -23q-22 0 -40 13q-20 16 -37 63l-97 262h-648l-96 -262q-17 -46 -38 -63q-18 -13 -40 -13q-34 0 -57 23q-15 15 -18.5 33.5t0 33.5
t11.5 39zM626 1215l-276 -750h550zM626 1812q139 0 250 -108q31 -29 33 -56q3 -25 -16 -46q-20 -22 -46 -20q-21 2 -48 27q-87 82 -173 82t-173 -82q-27 -25 -49 -27q-26 -2 -46 20q-19 21 -16 46q2 26 34 56q111 108 250 108z" />
    <glyph glyph-name="uni0203" unicode="&#x203;" horiz-adv-x="1078" 
d="M101 286q0 134 93 213t256 79h305v81q0 118 -59 175.5t-189 57.5q-74 0 -124.5 -20.5t-103.5 -68.5q-31 -27 -63 -27q-28 0 -45 19q-18 21 -18 47q0 49 96 112q105 66 259 66q195 0 295 -86t100 -251v-591q0 -47 -13 -68q-20 -32 -62 -32q-41 0 -61 32q-13 21 -13 68v2
q-61 -59 -125.5 -82.5t-163.5 -23.5q-104 0 -172 21.5t-115 70.5q-77 80 -77 206zM248 287q0 -173 232 -173q74 0 126.5 13.5t95.5 54.5q53 51 53 175v108h-289q-108 0 -163 -45.5t-55 -132.5zM518 1431q138 0 250 -109q32 -30 34 -56q3 -24 -17 -46t-46 -20q-21 2 -48 27
q-87 82 -173 82t-173 -82q-27 -25 -48 -27q-26 -2 -46 20t-17 46q2 26 34 56q112 109 250 109z" />
    <glyph glyph-name="uni0204" unicode="&#x204;" horiz-adv-x="1228" 
d="M306 1458h721q48 0 68 -12q29 -19 29 -57q0 -39 -29 -58q-20 -12 -68 -12h-658v-514h546q48 0 68 -12q30 -20 30 -58q0 -37 -30 -57q-20 -12 -68 -12h-546v-527h658q48 0 68 -12q29 -19 29 -57q0 -39 -29 -58q-20 -12 -68 -12h-721q-52 0 -74 22q-21 21 -21 73v1268
q0 53 21 74t74 21zM731 1881l105 -167q23 -36 24 -58q2 -38 -34 -59q-17 -11 -36 -11q-20 0 -37 12q-15 12 -34 42l-105 167q-23 36 -24 59q-2 37 34 58q16 11 36 11t37 -12q15 -12 34 -42zM393 1881l105 -167q23 -36 24 -58q2 -38 -34 -59q-17 -11 -36 -11q-20 0 -37 12
q-15 12 -34 42l-105 167q-23 36 -24 59q-2 37 34 58q17 11 37 11t36 -12q15 -12 34 -42z" />
    <glyph glyph-name="uni0205" unicode="&#x205;" horiz-adv-x="1083" 
d="M872 466h-594q0 -166 77 -257.5t222 -91.5q131 0 216 72q25 21 38.5 28.5t30.5 7.5q24 0 44 -19.5t20 -44.5q0 -49 -105 -115q-97 -58 -251 -58q-207 0 -324 128.5t-117 387.5q0 247 111.5 381.5t304.5 134.5q190 0 300.5 -127t112.5 -340q0 -48 -20 -68q-19 -19 -66 -19
zM278 579h534q-4 96 -32 163q-29 70 -91 110.5t-144 40.5t-145 -41t-91 -110q-27 -64 -31 -163zM617 1501l105 -167q23 -36 24 -58q2 -38 -33 -58q-18 -12 -37 -12t-37 13q-15 12 -34 42l-104 166q-24 38 -25 59q-2 37 34 58q16 11 37 11t37 -12q14 -10 33 -42zM280 1501
l104 -167q24 -38 25 -58q2 -37 -34 -58q-18 -12 -37 -12t-37 13q-15 12 -34 42l-104 166q-24 38 -25 59q-2 37 34 58q17 11 37 11q21 0 37 -12q15 -12 34 -42z" />
    <glyph glyph-name="uni0206" unicode="&#x206;" horiz-adv-x="1228" 
d="M306 1458h721q48 0 68 -12q29 -19 29 -57q0 -39 -29 -58q-20 -12 -68 -12h-658v-514h546q48 0 68 -12q30 -20 30 -58q0 -37 -30 -57q-20 -12 -68 -12h-546v-527h658q48 0 68 -12q29 -19 29 -57q0 -39 -29 -58q-20 -12 -68 -12h-721q-52 0 -74 22q-21 21 -21 73v1268
q0 53 21 74t74 21zM642 1812q139 0 250 -108q32 -30 34 -56q3 -24 -17 -46t-46 -20q-21 2 -48 27q-87 82 -173 82t-173 -82q-27 -25 -48 -27q-26 -2 -46 20t-17 46q2 26 34 56q111 108 250 108z" />
    <glyph glyph-name="uni0207" unicode="&#x207;" horiz-adv-x="1083" 
d="M872 466h-594q0 -166 77 -257.5t222 -91.5q131 0 216 72q25 21 38.5 28.5t30.5 7.5q24 0 44 -19.5t20 -44.5q0 -49 -105 -115q-97 -58 -251 -58q-207 0 -324 128.5t-117 387.5q0 247 111.5 381.5t304.5 134.5q190 0 300.5 -127t112.5 -340q0 -48 -20 -68q-19 -19 -66 -19
zM278 579h534q-4 96 -32 163q-29 70 -91 110.5t-144 40.5t-145 -41t-91 -110q-27 -64 -31 -163zM545 1431q138 0 250 -109q31 -29 33 -56q3 -25 -16 -46q-20 -22 -46 -20q-21 2 -48 27q-87 82 -173 82t-173 -82q-27 -25 -48 -27q-26 -2 -46 20t-17 46q2 26 34 56
q112 109 250 109z" />
    <glyph glyph-name="uni0208" unicode="&#x208;" horiz-adv-x="579" 
d="M369 1360v-1262q0 -49 -15 -73q-21 -33 -64 -33q-44 0 -65 33q-14 22 -14 73v1262q0 52 14 74q20 32 65 32q44 0 64 -32q15 -24 15 -74zM379 1881l104 -167q24 -38 25 -58q2 -38 -34 -59q-16 -11 -37 -11t-37 12q-14 10 -33 42l-105 167q-23 36 -24 59q-2 38 33 58
q17 11 37 11t37 -12q15 -12 34 -42zM41 1881l104 -167q24 -38 25 -58q2 -38 -34 -59q-16 -11 -37 -11t-37 12q-14 10 -33 42l-105 167q-23 36 -24 59q-2 38 33 58q16 11 37 11q20 0 37 -12q15 -12 34 -42z" />
    <glyph glyph-name="uni0209" unicode="&#x209;" horiz-adv-x="530" 
d="M340 915v-823q0 -47 -13 -68q-20 -32 -62 -32q-41 0 -61 32q-14 23 -14 68v823q0 46 14 69q20 32 61 32q42 0 62 -32q13 -21 13 -69zM338 1501l104 -167q24 -38 25 -58q2 -37 -34 -58q-18 -12 -37 -12t-37 13q-14 10 -33 42l-105 166q-23 36 -24 59q-2 38 33 58
q16 11 37 11t37 -12q15 -12 34 -42zM0 1501l104 -167q24 -38 25 -58q2 -37 -34 -58q-18 -12 -37 -12q-18 0 -36 13q-15 12 -34 42l-105 166q-23 36 -24 59q-2 38 33 58q16 11 37 11t37 -12q15 -12 34 -42z" />
    <glyph glyph-name="uni020A" unicode="&#x20a;" horiz-adv-x="579" 
d="M369 1360v-1262q0 -49 -15 -73q-21 -33 -64 -33q-44 0 -65 33q-14 22 -14 73v1262q0 52 14 74q20 32 65 32q44 0 64 -32q15 -24 15 -74zM290 1812q139 0 250 -108q31 -29 33 -56q3 -25 -16 -46q-20 -22 -46 -20q-21 2 -48 27q-87 82 -173 82t-173 -82q-27 -25 -48 -27
q-26 -2 -46 20t-17 46q2 26 34 56q111 108 250 108z" />
    <glyph glyph-name="uni020B" unicode="&#x20b;" horiz-adv-x="530" 
d="M340 915v-823q0 -47 -13 -68q-20 -32 -62 -32q-41 0 -61 32q-14 23 -14 68v823q0 46 14 69q20 32 61 32q42 0 62 -32q13 -21 13 -69zM265 1431q138 0 250 -109q32 -30 34 -56q3 -24 -17 -46t-46 -20q-21 2 -48 27q-87 82 -173 82t-173 -82q-27 -25 -48 -27q-26 -2 -46 20
q-19 21 -16 46q2 27 33 56q112 109 250 109z" />
    <glyph glyph-name="uni020C" unicode="&#x20c;" horiz-adv-x="1335" 
d="M668 1470q219 0 364 -143q42 -42 68.5 -85t43 -87t24.5 -112.5t10 -134t2 -179.5t-2 -179.5t-10 -134t-24.5 -112.5t-43 -87t-68.5 -85q-145 -143 -364 -143q-220 0 -365 143q-42 42 -68.5 85t-42.5 86.5t-24 113t-10 134.5t-2 179t2 179t10 134.5t24 113t42.5 86.5
t68.5 85q145 143 365 143zM668 127q151 0 252 104q66 67 84 164t18 334t-18 334t-84 164q-101 104 -252 104t-252 -104q-66 -67 -84.5 -164.5t-18.5 -333.5t18.5 -333.5t84.5 -164.5q101 -104 252 -104zM757 1881l104 -167q24 -38 25 -58q2 -38 -34 -59q-16 -11 -37 -11
t-37 12q-15 12 -34 42l-104 167q-24 38 -25 59q-2 37 34 58q16 11 37 11q20 0 37 -12q15 -12 34 -42zM419 1881l104 -167q24 -38 25 -58q2 -38 -34 -59q-17 -11 -37 -11q-21 0 -37 12q-14 10 -33 42l-105 167q-23 36 -24 59q-2 38 33 58q16 11 37 11q20 0 37 -12
q15 -12 34 -42z" />
    <glyph glyph-name="uni020D" unicode="&#x20d;" 
d="M545 121q109 0 182 73q48 48 65 126.5t17 183.5t-17 183t-65 126q-74 74 -182 74q-109 0 -183 -74q-48 -48 -64.5 -125.5t-16.5 -183.5t16.5 -184t64.5 -126q73 -73 183 -73zM545 1020q175 0 290 -115q72 -73 97.5 -170t25.5 -231q0 -133 -25.5 -231t-97.5 -171
q-114 -114 -290 -114t-290 114q-72 73 -98 171t-26 231t26 230t98 171q115 115 290 115zM617 1501l105 -167q23 -36 24 -58q2 -38 -33 -58q-18 -12 -37 -12t-37 13q-15 12 -34 42l-104 166q-24 38 -25 59q-2 37 34 58q16 11 37 11t37 -12q14 -10 33 -42zM280 1501l104 -167
q24 -38 25 -58q2 -37 -34 -58q-18 -12 -37 -12t-37 13q-15 12 -34 42l-104 166q-24 38 -25 59q-2 37 34 58q17 11 37 11q21 0 37 -12q15 -12 34 -42z" />
    <glyph glyph-name="uni020E" unicode="&#x20e;" horiz-adv-x="1335" 
d="M668 1470q219 0 364 -143q42 -42 68.5 -85t43 -87t24.5 -112.5t10 -134t2 -179.5t-2 -179.5t-10 -134t-24.5 -112.5t-43 -87t-68.5 -85q-145 -143 -364 -143q-220 0 -365 143q-42 42 -68.5 85t-42.5 86.5t-24 113t-10 134.5t-2 179t2 179t10 134.5t24 113t42.5 86.5
t68.5 85q145 143 365 143zM668 127q151 0 252 104q66 67 84 164t18 334t-18 334t-84 164q-101 104 -252 104t-252 -104q-66 -67 -84.5 -164.5t-18.5 -333.5t18.5 -333.5t84.5 -164.5q101 -104 252 -104zM668 1812q139 0 250 -108q31 -29 33 -56q3 -25 -16 -46
q-20 -22 -46 -20q-21 2 -48 27q-87 82 -173 82t-173 -82q-27 -25 -49 -27q-26 -2 -46 20q-19 21 -16 46q2 26 34 56q111 108 250 108z" />
    <glyph glyph-name="uni020F" unicode="&#x20f;" 
d="M545 121q109 0 182 73q48 48 65 126.5t17 183.5t-17 183t-65 126q-74 74 -182 74q-109 0 -183 -74q-48 -48 -64.5 -125.5t-16.5 -183.5t16.5 -184t64.5 -126q73 -73 183 -73zM545 1020q175 0 290 -115q72 -73 97.5 -170t25.5 -231q0 -133 -25.5 -231t-97.5 -171
q-114 -114 -290 -114t-290 114q-72 73 -98 171t-26 231t26 230t98 171q115 115 290 115zM545 1431q138 0 250 -109q31 -29 33 -56q3 -25 -16 -46q-20 -22 -46 -20q-21 2 -48 27q-87 82 -173 82t-173 -82q-27 -25 -48 -27q-26 -2 -46 20t-17 46q2 26 34 56q112 109 250 109z
" />
    <glyph glyph-name="uni0210" unicode="&#x210;" horiz-adv-x="1345" 
d="M211 1363q0 53 21 74t74 21h466q194 0 314 -109t120 -296q0 -156 -86.5 -258t-231.5 -133l302 -528q23 -42 23 -71q0 -39 -39 -60q-19 -11 -40 -11q-27 0 -45 16.5t-35 47.5l-338 591h-347v-549q0 -49 -15 -73q-21 -33 -64 -33q-44 0 -65 33q-14 22 -14 73v1265z
M758 1319h-389v-535h389q132 0 211.5 68.5t79.5 198.5t-79.5 199t-211.5 69zM761 1881l104 -167q24 -38 25 -58q2 -38 -34 -59q-17 -11 -37 -11q-21 0 -37 12q-14 10 -33 42l-105 167q-23 36 -24 59q-2 38 33 58q16 11 37 11q20 0 37 -12q15 -12 34 -42zM423 1881l104 -167
q24 -38 25 -58q2 -38 -34 -59q-17 -11 -37 -11q-21 0 -37 12q-14 10 -33 42l-105 167q-23 36 -24 59q-2 38 33 58q17 11 37 11t37 -12q15 -12 34 -42z" />
    <glyph glyph-name="uni0211" unicode="&#x211;" horiz-adv-x="864" 
d="M335 916v-29q42 61 116.5 97t158.5 36q106 0 182 -48q56 -34 56 -76q0 -30 -22 -52t-51 -22q-21 0 -70 29q-59 36 -126 36q-111 0 -177.5 -76t-66.5 -196v-523q0 -47 -13 -68q-20 -32 -62 -32q-41 0 -61 32q-14 23 -14 68v824q0 46 14 69q20 32 61 32q42 0 62 -32
q13 -21 13 -69zM500 1501l104 -167q24 -38 25 -58q2 -37 -34 -58q-18 -12 -37 -12t-37 13q-15 12 -34 42l-104 166q-24 38 -25 59q-2 37 34 58q16 11 37 11t37 -12q15 -12 34 -42zM162 1501l104 -167q24 -38 25 -58q2 -37 -34 -58q-18 -12 -37 -12t-37 13q-14 10 -33 42
l-105 166q-24 38 -25 59q-2 37 34 58q16 11 37 11t37 -12q15 -12 34 -42z" />
    <glyph glyph-name="uni0212" unicode="&#x212;" horiz-adv-x="1345" 
d="M211 1363q0 53 21 74t74 21h466q194 0 314 -109t120 -296q0 -156 -86.5 -258t-231.5 -133l302 -528q23 -42 23 -71q0 -39 -39 -60q-19 -11 -40 -11q-27 0 -45 16.5t-35 47.5l-338 591h-347v-549q0 -49 -15 -73q-21 -33 -64 -33q-44 0 -65 33q-14 22 -14 73v1265z
M758 1319h-389v-535h389q132 0 211.5 68.5t79.5 198.5t-79.5 199t-211.5 69zM672 1812q139 0 250 -108q31 -29 33 -56q3 -25 -16 -46q-20 -22 -46 -20q-21 2 -48 27q-87 82 -173 82t-173 -82q-27 -25 -48 -27q-27 -2 -47 20q-19 21 -16 46q2 26 34 56q111 108 250 108z" />
    <glyph glyph-name="uni0213" unicode="&#x213;" horiz-adv-x="864" 
d="M335 916v-29q42 61 116.5 97t158.5 36q106 0 182 -48q56 -34 56 -76q0 -30 -22 -52t-51 -22q-21 0 -70 29q-59 36 -126 36q-111 0 -177.5 -76t-66.5 -196v-523q0 -47 -13 -68q-20 -32 -62 -32q-41 0 -61 32q-14 23 -14 68v824q0 46 14 69q20 32 61 32q42 0 62 -32
q13 -21 13 -69zM427 1431q138 0 250 -109q32 -30 34 -56q3 -24 -17 -46t-46 -20q-21 2 -48 27q-87 82 -173 82t-173 -82q-27 -25 -48 -27q-26 -2 -46 20t-17 46q2 26 34 56q112 109 250 109z" />
    <glyph glyph-name="uni0214" unicode="&#x214;" horiz-adv-x="1400" 
d="M1211 481q0 -217 -144.5 -355t-367.5 -138t-366.5 138t-143.5 355v879q0 50 15 74q20 32 64 32q45 0 65 -32q14 -22 14 -74v-866q0 -166 96 -266.5t256 -100.5t257.5 100.5t97.5 266.5v866q0 52 14 74q20 32 65 32q44 0 64 -32q14 -22 14 -74v-879zM788 1881l105 -167
q24 -38 25 -58q2 -38 -34 -59q-17 -11 -37 -11q-21 0 -37 12q-15 12 -34 42l-104 167q-24 38 -25 59q-2 37 34 58q17 11 37 11t37 -12q14 -10 33 -42zM451 1881l104 -167q24 -38 25 -58q2 -38 -34 -59q-16 -11 -37 -11q-20 0 -37 12q-15 12 -34 42l-104 167q-24 38 -25 59
q-2 37 34 58q17 11 37 11q21 0 37 -12q15 -12 34 -42z" />
    <glyph glyph-name="uni0215" unicode="&#x215;" horiz-adv-x="1157" 
d="M174 364v551q0 47 13 69q20 32 62 32q43 0 61 -32q14 -24 14 -69v-526q0 -132 64.5 -200t181.5 -68q118 0 185 69t67 199v526q0 45 14 69q20 32 61 32t61 -32q14 -24 14 -69v-823q0 -45 -14 -68q-20 -32 -61 -32t-61 32q-14 23 -14 68v19q-111 -123 -282 -123
q-165 0 -261 94q-105 102 -105 282zM644 1501l105 -167q23 -36 24 -58q2 -37 -34 -58q-18 -12 -37 -12q-18 0 -36 13q-15 12 -34 42l-105 166q-23 36 -24 59q-2 37 34 58q17 11 36 11q21 0 37 -12q15 -12 34 -42zM306 1501l105 -167q23 -36 24 -58q2 -37 -34 -58
q-18 -12 -36 -12q-19 0 -37 13q-15 12 -34 42l-105 166q-23 36 -24 59q-2 37 34 58q17 11 37 11t36 -12q15 -12 34 -42z" />
    <glyph glyph-name="uni0216" unicode="&#x216;" horiz-adv-x="1400" 
d="M1211 481q0 -217 -144.5 -355t-367.5 -138t-366.5 138t-143.5 355v879q0 50 15 74q20 32 64 32q45 0 65 -32q14 -22 14 -74v-866q0 -166 96 -266.5t256 -100.5t257.5 100.5t97.5 266.5v866q0 52 14 74q20 32 65 32q44 0 64 -32q14 -22 14 -74v-879zM699 1812
q139 0 250 -108q32 -30 34 -56q3 -25 -16 -46q-20 -22 -46 -20q-22 2 -49 27q-87 82 -173 82t-173 -82q-27 -25 -48 -27q-26 -2 -46 20q-19 21 -16 46q2 26 34 56q111 108 249 108z" />
    <glyph glyph-name="uni0217" unicode="&#x217;" horiz-adv-x="1157" 
d="M174 364v551q0 47 13 69q20 32 62 32q43 0 61 -32q14 -24 14 -69v-526q0 -132 64.5 -200t181.5 -68q118 0 185 69t67 199v526q0 45 14 69q20 32 61 32t61 -32q14 -24 14 -69v-823q0 -45 -14 -68q-20 -32 -61 -32t-61 32q-14 23 -14 68v19q-111 -123 -282 -123
q-165 0 -261 94q-105 102 -105 282zM571 1431q138 0 250 -109q32 -30 34 -56q3 -25 -16 -46q-20 -22 -46 -20q-22 2 -49 27q-87 82 -173 82t-173 -82q-27 -25 -48 -27q-26 -2 -46 20q-19 21 -16 46q2 26 34 56q112 109 249 109z" />
    <glyph glyph-name="uni0218" unicode="&#x218;" horiz-adv-x="1205" 
d="M675 650l-171 27q-89 13 -150 38t-115 73q-113 100 -113 272q0 187 126 298.5t341 111.5q111 0 186.5 -22t170.5 -80q61 -36 61 -80q0 -26 -18 -46q-19 -22 -49 -22q-26 0 -72 28q-73 50 -134 68.5t-151 18.5q-145 0 -227 -73t-82 -195q0 -114 67 -171q40 -34 83 -52
t113 -28l160 -24q102 -17 162 -39.5t106 -62.5q122 -103 122 -289q0 -190 -138 -301.5t-367 -111.5q-133 0 -223.5 27.5t-191.5 95.5q-66 44 -66 89q0 31 22 53q19 19 48 19q32 0 73 -32q82 -62 159 -87.5t184 -25.5q161 0 253 71t92 198q0 121 -71 184q-35 30 -72.5 44
t-117.5 26zM418 -346l104 167q19 30 34 42q16 12 37 12t37 -11q36 -21 34 -59q-1 -20 -25 -58l-104 -167q-19 -30 -34 -42q-17 -12 -37 -12q-21 0 -37 11q-36 21 -34 59q1 20 25 58z" />
    <glyph glyph-name="uni0219" unicode="&#x219;" horiz-adv-x="1015" 
d="M148 84q-49 32 -49 70q0 29 24 51q17 15 43 15t67 -29q105 -75 266 -75q130 0 199 44.5t69 132.5q0 67 -41 102.5t-127 43.5l-166 16q-301 26 -301 270q0 135 103.5 215.5t267.5 80.5q155 0 281 -64q38 -18 51 -36q11 -16 11 -38q0 -19 -17 -40q-20 -22 -47 -22
q-18 0 -56 20q-103 54 -225 54q-107 0 -166.5 -43.5t-59.5 -122.5q0 -68 43 -102.5t135 -42.5l161 -16q143 -13 220 -75.5t77 -197.5q0 -144 -112 -225.5t-298 -81.5q-214 0 -353 96zM330 -346l104 167q19 30 34 42q16 12 37 12t37 -11q35 -20 33 -59q-1 -22 -24 -58
l-105 -167q-19 -32 -33 -42q-17 -12 -37 -12t-37 11q-36 21 -34 59q1 20 25 58z" />
    <glyph glyph-name="uni021A" unicode="&#x21a;" horiz-adv-x="1120" 
d="M150 1458h821q47 0 67 -12q30 -20 30 -57q0 -38 -30 -58q-20 -12 -67 -12h-332v-1221q0 -51 -14 -73q-21 -33 -65 -33q-43 0 -64 33q-15 24 -15 73v1221h-331q-48 0 -68 12q-30 20 -30 58q0 37 30 57q20 12 68 12zM370 -346l104 167q19 30 34 42q16 12 37 12t37 -11
q35 -20 33 -59q-1 -22 -24 -58l-105 -167q-19 -32 -33 -42q-16 -12 -37 -12t-37 11q-36 21 -34 59q1 20 25 58z" />
    </font>
</defs>
</svg>
